<?xml version="1.0" standalone="no"?>
<!DOCTYPE svg PUBLIC "-//W3C//DTD SVG 1.1//EN" "http://www.w3.org/Graphics/SVG/1.1/DTD/svg11.dtd" >
<svg xmlns="http://www.w3.org/2000/svg">
<metadata></metadata>
<defs>
<font id="glyphicons_halflingsregular" horiz-adv-x="1200" >
<font-face units-per-em="1200" ascent="960" descent="-240" />
<missing-glyph horiz-adv-x="500" />
<glyph horiz-adv-x="0" />
<glyph horiz-adv-x="400" />
<glyph unicode=" " />
<glyph unicode="&#xa0;" />
<glyph unicode="&#x2000;" horiz-adv-x="651" />
<glyph unicode="&#x2001;" horiz-adv-x="1302" />
<glyph unicode="&#x2002;" horiz-adv-x="651" />
<glyph unicode="&#x2003;" horiz-adv-x="1302" />
<glyph unicode="&#x2004;" horiz-adv-x="434" />
<glyph unicode="&#x2005;" horiz-adv-x="325" />
<glyph unicode="&#x2006;" horiz-adv-x="217" />
<glyph unicode="&#x2007;" horiz-adv-x="217" />
<glyph unicode="&#x2008;" horiz-adv-x="162" />
<glyph unicode="&#x2009;" horiz-adv-x="260" />
<glyph unicode="&#x200a;" horiz-adv-x="72" />
<glyph unicode="&#x202f;" horiz-adv-x="260" />
<glyph unicode="&#x205f;" horiz-adv-x="325" />
<glyph unicode="&#x25fc;" horiz-adv-x="500" d="M0 0z" />
<glyph unicode="&#xe001;" d="M200 0v50q0 21 14.5 35.5t35.5 14.5h250v550l-500 550h1200l-500 -550v-550h250q21 0 35.5 -14.5t14.5 -35.5v-50h-800z" />
<glyph unicode="&#xe002;" d="M247 14q-41 -14 -84 -14q-55 0 -96 22.5t-53 61.5q-5 17 -5 31q0 49 42.5 95t110.5 68q44 14 84 14q30 0 54 -7v639q0 26 5.5 42.5t20.5 29t42 21.5l645 163q18 7 35 7q12 0 22 -4t16.5 -11.5t10 -18t3.5 -22.5v-831q0 -55 -41.5 -95.5t-111.5 -63.5q-45 -14 -84 -14 q-27 0 -51.5 5.5t-44 16.5t-33.5 27t-20 36q-5 18 -5 30q0 32 19 64.5t54 58.5t80 40q40 14 84 14q29 0 54 -6v521l-600 -155v-606q0 -27 -19.5 -58.5t-55 -59t-78.5 -41.5z" />
<glyph unicode="&#xe003;" d="M1043 12l-275 274q-119 -77 -261 -77l-6 1l-1 -1q-80 0 -155 25t-135 70.5t-105.5 105.5t-70.5 135t-25 155q0 100 39 191t104.5 156.5t156.5 104.5t191 39t191 -39t156.5 -104.5t104.5 -156.5t39 -191l-1 -2l1 -5q0 -141 -78 -262l275 -274q23 -23 23 -43q0 -18 -23 -44 l-59 -58q-27 -20 -47 -20q-19 0 -39 20zM500 378q88 0 162 43t117 117t43 162t-43 162t-117 117t-162 43t-162 -43t-117 -117t-43 -162q0 -66 25.5 -125.5t68.5 -102.5t102.5 -68.5t125.5 -25.5z" />
<glyph unicode="&#xe004;" d="M582 515l-564 567q-6 6 -6 10q0 8 13 8h1150q13 0 13 -8q0 -4 -6 -10l-564 -567q-8 -8 -18 -8t-18 8zM18 318q-6 -6 -10 -6q-8 0 -8 13v550q0 13 8 13q4 0 10 -6l264 -264q8 -8 8 -18t-8 -18zM1182 318l-264 264q-8 8 -8 18t8 18l264 264q6 6 10 6q8 0 8 -13v-550 q0 -13 -8 -13q-4 0 -10 6zM25 100q-13 0 -13 8q0 4 6 10l364 364q8 8 18 8t18 -8l164 -164q8 -8 18 -8t18 8l164 164q8 8 18 8t18 -8l364 -364q6 -6 6 -10q0 -8 -13 -8h-1150z" />
<glyph unicode="&#xe005;" d="M649 88q-62 85 -145.5 174t-150 152.5t-126.5 127.5t-93.5 124.5t-33.5 117.5q0 83 44 154.5t115.5 112.5t149.5 41q33 0 64.5 -8.5t62.5 -25t60 -44.5t53 -65q35 49 76.5 81.5t83.5 47t87 14.5q78 0 147.5 -41t112.5 -112.5t43 -154.5q0 -57 -33.5 -117.5t-94 -124.5 t-126.5 -127.5t-150 -152.5t-146 -174z" />
<glyph unicode="&#xe006;" d="M211 101q-12 -8 -19 -8q-9 0 -9 11q0 5 3 16l130 400l-347 251q-15 11 -15 18q0 11 24 11h429l131 353q7 19 17 19q11 0 18 -19l129 -353h421q24 0 24 -11q0 -8 -14 -18l-342 -249l130 -401q3 -9 3 -15q0 -12 -9 -12q-6 0 -19 8l-343 246z" />
<glyph unicode="&#xe007;" d="M211 101q-12 -8 -19 -8q-9 0 -9 11q0 5 3 16l130 400l-347 251q-15 11 -15 18q0 11 24 11h429l131 353q7 19 17 19q11 0 18 -19l129 -353h421q24 0 24 -11q0 -8 -14 -18l-342 -249l130 -401q3 -9 3 -15q0 -12 -9 -12q-6 0 -19 8l-343 246zM748 331l-74 229l192 140h-234 l-78 211l-77 -211h-240l197 -142l-74 -226l192 140z" />
<glyph unicode="&#xe008;" d="M25 0q-10 0 -17.5 7.5t-7.5 17.5v93q0 10 6 21.5t15 16.5l358 230q9 6 15 17.5t6 21.5v75q-38 0 -69 52t-31 98v250q0 61 24 116.5t64 95.5t95.5 64t116.5 24q124 0 212 -88t88 -212v-250q0 -46 -31 -98t-69 -52v-75q0 -10 6 -21.5t15 -17.5l358 -230q9 -5 15 -16.5 t6 -21.5v-93q0 -10 -7.5 -17.5t-17.5 -7.5h-1150z" />
<glyph unicode="&#xe009;" d="M25 0q-10 0 -17.5 7.5t-7.5 17.5v1050q0 10 7.5 17.5t17.5 7.5h1150q10 0 17.5 -7.5t7.5 -17.5v-1050q0 -10 -7.5 -17.5t-17.5 -7.5h-1150zM100 900h100v100h-100v-100zM325 600h550q10 0 17.5 7.5t7.5 17.5v350q0 10 -7.5 17.5t-17.5 7.5h-550q-10 0 -17.5 -7.5 t-7.5 -17.5v-350q0 -10 7.5 -17.5t17.5 -7.5zM1000 900h100v100h-100v-100zM100 700h100v100h-100v-100zM1000 700h100v100h-100v-100zM100 500h100v100h-100v-100zM1000 500h100v100h-100v-100zM325 100h550q10 0 17.5 7.5t7.5 17.5v350q0 10 -7.5 17.5t-17.5 7.5h-550 q-10 0 -17.5 -7.5t-7.5 -17.5v-350q0 -10 7.5 -17.5t17.5 -7.5zM100 300h100v100h-100v-100zM1000 300h100v100h-100v-100zM100 100h100v100h-100v-100zM1000 100h100v100h-100v-100z" />
<glyph unicode="&#xe010;" d="M50 600q-21 0 -35.5 14.5t-14.5 35.5v400q0 21 14.5 35.5t35.5 14.5h400q21 0 35.5 -14.5t14.5 -35.5v-400q0 -21 -14.5 -35.5t-35.5 -14.5h-400zM650 600q-21 0 -35.5 14.5t-14.5 35.5v400q0 21 14.5 35.5t35.5 14.5h400q21 0 35.5 -14.5t14.5 -35.5v-400 q0 -21 -14.5 -35.5t-35.5 -14.5h-400zM50 0q-21 0 -35.5 14.5t-14.5 35.5v400q0 21 14.5 35.5t35.5 14.5h400q21 0 35.5 -14.5t14.5 -35.5v-400q0 -21 -14.5 -35.5t-35.5 -14.5h-400zM650 0q-21 0 -35.5 14.5t-14.5 35.5v400q0 21 14.5 35.5t35.5 14.5h400q21 0 35.5 -14.5 t14.5 -35.5v-400q0 -21 -14.5 -35.5t-35.5 -14.5h-400z" />
<glyph unicode="&#xe011;" d="M50 800q-21 0 -35.5 14.5t-14.5 35.5v200q0 21 14.5 35.5t35.5 14.5h200q21 0 35.5 -14.5t14.5 -35.5v-200q0 -21 -14.5 -35.5t-35.5 -14.5h-200zM450 800q-21 0 -35.5 14.5t-14.5 35.5v200q0 21 14.5 35.5t35.5 14.5h200q21 0 35.5 -14.5t14.5 -35.5v-200 q0 -21 -14.5 -35.5t-35.5 -14.5h-200zM850 800q-21 0 -35.5 14.5t-14.5 35.5v200q0 21 14.5 35.5t35.5 14.5h200q21 0 35.5 -14.5t14.5 -35.5v-200q0 -21 -14.5 -35.5t-35.5 -14.5h-200zM50 400q-21 0 -35.5 14.5t-14.5 35.5v200q0 21 14.5 35.5t35.5 14.5h200 q21 0 35.5 -14.5t14.5 -35.5v-200q0 -21 -14.5 -35.5t-35.5 -14.5h-200zM450 400q-21 0 -35.5 14.5t-14.5 35.5v200q0 21 14.5 35.5t35.5 14.5h200q21 0 35.5 -14.5t14.5 -35.5v-200q0 -21 -14.5 -35.5t-35.5 -14.5h-200zM850 400q-21 0 -35.5 14.5t-14.5 35.5v200 q0 21 14.5 35.5t35.5 14.5h200q21 0 35.5 -14.5t14.5 -35.5v-200q0 -21 -14.5 -35.5t-35.5 -14.5h-200zM50 0q-21 0 -35.5 14.5t-14.5 35.5v200q0 21 14.5 35.5t35.5 14.5h200q21 0 35.5 -14.5t14.5 -35.5v-200q0 -21 -14.5 -35.5t-35.5 -14.5h-200zM450 0q-21 0 -35.5 14.5 t-14.5 35.5v200q0 21 14.5 35.5t35.5 14.5h200q21 0 35.5 -14.5t14.5 -35.5v-200q0 -21 -14.5 -35.5t-35.5 -14.5h-200zM850 0q-21 0 -35.5 14.5t-14.5 35.5v200q0 21 14.5 35.5t35.5 14.5h200q21 0 35.5 -14.5t14.5 -35.5v-200q0 -21 -14.5 -35.5t-35.5 -14.5h-200z" />
<glyph unicode="&#xe012;" d="M50 800q-21 0 -35.5 14.5t-14.5 35.5v200q0 21 14.5 35.5t35.5 14.5h200q21 0 35.5 -14.5t14.5 -35.5v-200q0 -21 -14.5 -35.5t-35.5 -14.5h-200zM450 800q-21 0 -35.5 14.5t-14.5 35.5v200q0 21 14.5 35.5t35.5 14.5h700q21 0 35.5 -14.5t14.5 -35.5v-200 q0 -21 -14.5 -35.5t-35.5 -14.5h-700zM50 400q-21 0 -35.5 14.5t-14.5 35.5v200q0 21 14.5 35.5t35.5 14.5h200q21 0 35.5 -14.5t14.5 -35.5v-200q0 -21 -14.5 -35.5t-35.5 -14.5h-200zM450 400q-21 0 -35.5 14.5t-14.5 35.5v200q0 21 14.5 35.5t35.5 14.5h700 q21 0 35.5 -14.5t14.5 -35.5v-200q0 -21 -14.5 -35.5t-35.5 -14.5h-700zM50 0q-21 0 -35.5 14.5t-14.5 35.5v200q0 21 14.5 35.5t35.5 14.5h200q21 0 35.5 -14.5t14.5 -35.5v-200q0 -21 -14.5 -35.5t-35.5 -14.5h-200zM450 0q-21 0 -35.5 14.5t-14.5 35.5v200 q0 21 14.5 35.5t35.5 14.5h700q21 0 35.5 -14.5t14.5 -35.5v-200q0 -21 -14.5 -35.5t-35.5 -14.5h-700z" />
<glyph unicode="&#xe013;" d="M430 52l-384 384q-7 7 -7 18t7 17l177 177q8 8 17 8q10 0 18 -8l171 -171q7 -7 18 -7t18 7l571 571q8 8 18 8q11 0 17 -8l177 -177q8 -8 8 -17q0 -10 -8 -18l-783 -784q-7 -7 -18 -7q-10 0 -17 7z" />
<glyph unicode="&#xe014;" d="M296 118l-178 178q-8 8 -8 18t8 18l267 268l-267 268q-8 8 -8 18t8 18l178 178q8 8 18 8t18 -8l268 -267l268 268q8 7 18 7t18 -7l178 -179q8 -8 8 -18t-8 -18l-267 -268l267 -268q8 -8 8 -18t-8 -18l-178 -178q-8 -8 -18 -8t-18 8l-268 267l-268 -267q-8 -8 -18 -8 t-18 8z" />
<glyph unicode="&#xe015;" d="M1068 -13l-300 299q-119 -77 -261 -77q-79 0 -153 24.5t-133.5 69t-104 104t-69 133.5t-24.5 153q0 98 38.5 187.5t103 154.5t154.5 103.5t188 38.5t187.5 -38.5t154.5 -103.5t103.5 -154.5t38.5 -187.5q0 -141 -78 -262l300 -299q8 -8 8 -19q0 -10 -8 -18l-109 -108 q-8 -8 -18 -8t-18 8zM507 363q89 0 165.5 44t120.5 120t44 166q0 67 -26 128t-70.5 105.5t-105.5 70.5t-128 26q-90 0 -166 -44t-120 -120.5t-44 -165.5q0 -67 26 -128.5t70 -105.5t105.5 -70t128.5 -26zM425 500q-10 0 -17.5 7.5t-7.5 17.5v75h-75q-10 0 -17.5 7.5 t-7.5 17.5v150q0 10 7.5 17.5t17.5 7.5h75v75q0 10 7.5 17.5t17.5 7.5h150q10 0 17.5 -7.5t7.5 -17.5v-75h75q10 0 17.5 -7.5t7.5 -17.5v-150q0 -10 -7.5 -17.5t-17.5 -7.5h-75v-75q0 -10 -7.5 -17.5t-17.5 -7.5h-150z" />
<glyph unicode="&#xe016;" d="M1068 -13l-300 299q-119 -77 -261 -77q-79 0 -153 24.5t-133.5 69t-104 104t-69 133.5t-24.5 153q0 98 38.5 187.5t103 154.5t154.5 103.5t188 38.5t187.5 -38.5t154.5 -103.5t103.5 -154.5t38.5 -187.5q0 -141 -78 -262l300 -299q8 -8 8 -19q0 -10 -8 -18l-109 -108 q-8 -8 -18 -8t-18 8zM507 363q89 0 165.5 44t120.5 120t44 166q0 67 -26 128t-70.5 105.5t-105.5 70.5t-128 26q-90 0 -166 -44t-120 -120.5t-44 -165.5q0 -67 26 -128.5t70 -105.5t105.5 -70t128.5 -26zM325 600q-10 0 -17.5 7.5t-7.5 17.5v150q0 10 7.5 17.5t17.5 7.5h350 q10 0 17.5 -7.5t7.5 -17.5v-150q0 -10 -7.5 -17.5t-17.5 -7.5h-350z" />
<glyph unicode="&#xe017;" d="M550 700q-21 0 -35.5 14.5t-14.5 35.5v400q0 21 14.5 35.5t35.5 14.5h100q21 0 35.5 -14.5t14.5 -35.5v-400q0 -21 -14.5 -35.5t-35.5 -14.5h-100zM600 23q-117 0 -224 45.5t-184.5 123t-123 184.5t-45.5 224q0 184 105 331.5t272 209.5v-166q-50 -27 -92 -66t-72 -87 t-46.5 -105t-16.5 -117q0 -116 57 -214.5t155.5 -155.5t214.5 -57t214.5 57t155.5 155.5t57 214.5q0 120 -62 220t-165 155v166q167 -62 272 -209.5t105 -331.5q0 -117 -45.5 -224t-123 -184.5t-184.5 -123t-224 -45.5z" />
<glyph unicode="&#xe018;" d="M1025 0q-10 0 -17.5 7.5t-7.5 17.5v1150q0 10 7.5 17.5t17.5 7.5h150q10 0 17.5 -7.5t7.5 -17.5v-1150q0 -10 -7.5 -17.5t-17.5 -7.5h-150zM725 0q-10 0 -17.5 7.5t-7.5 17.5v750q0 10 7.5 17.5t17.5 7.5h150q10 0 17.5 -7.5t7.5 -17.5v-750q0 -10 -7.5 -17.5t-17.5 -7.5 h-150zM425 0q-10 0 -17.5 7.5t-7.5 17.5v450q0 10 7.5 17.5t17.5 7.5h150q10 0 17.5 -7.5t7.5 -17.5v-450q0 -10 -7.5 -17.5t-17.5 -7.5h-150zM125 0q-10 0 -17.5 7.5t-7.5 17.5v250q0 10 7.5 17.5t17.5 7.5h150q10 0 17.5 -7.5t7.5 -17.5v-250q0 -10 -7.5 -17.5t-17.5 -7.5 h-150z" />
<glyph unicode="&#xe019;" d="M600 27q-33 0 -74 5l-38 151l-5 2q-49 14 -94 39l-5 3l-134 -81q-60 48 -104 105l80 134l-3 5q-25 45 -38 93l-2 6l-151 38q-6 42 -6 74q0 33 6 73l151 38l2 6q13 48 38 93l3 5l-80 134q47 61 105 105l133 -80l5 2q45 25 94 39l5 1l38 152q43 5 74 5q33 0 74 -5l38 -152 l5 -1q49 -14 94 -39l5 -2l134 80q61 -48 104 -105l-80 -134l3 -5q25 -44 39 -93l1 -6l152 -38q5 -43 5 -73q0 -34 -5 -74l-152 -38l-1 -6q-15 -49 -39 -93l-3 -5l80 -134q-48 -61 -104 -105l-134 81l-5 -3q-44 -25 -94 -39l-5 -2l-38 -151q-43 -5 -74 -5zM600 386 q89 0 152 63t63 151.5t-63 151.5t-152 63t-152 -63t-63 -151.5t63 -151.5t152 -63z" />
<glyph unicode="&#xe020;" d="M100 1000v75q0 10 7.5 17.5t17.5 7.5h275v100q0 41 29.5 70.5t70.5 29.5h300q41 0 70.5 -29.5t29.5 -70.5v-100h275q10 0 17.5 -7.5t7.5 -17.5v-75h-1100zM500 1100h300v100h-300v-100zM300 0q-41 0 -70.5 29.5t-29.5 70.5v800h900v-800q0 -41 -29.5 -70.5t-70.5 -29.5 h-700zM300 100h100v700h-100v-700zM500 100h100v700h-100v-700zM700 100h100v700h-100v-700zM900 100h100v700h-100v-700z" />
<glyph unicode="&#xe021;" d="M225 0q-5 0 -9.5 2t-8 5.5t-5.5 8t-2 9.5v575h-175q-13 0 -13 7q0 5 6 11l620 608q7 7 18 7t18 -7l608 -608q6 -6 6 -10q0 -8 -13 -8h-175v-575q0 -10 -7.5 -17.5t-17.5 -7.5h-250q-10 0 -17.5 7.5t-7.5 17.5v375h-300v-375q0 -10 -7.5 -17.5t-17.5 -7.5h-250z" />
<glyph unicode="&#xe022;" d="M150 0q-21 0 -35.5 14.5t-14.5 35.5v1100q0 21 14.5 35.5t35.5 14.5h450v-400q0 -41 29.5 -70.5t70.5 -29.5h300v-650q0 -21 -14.5 -35.5t-35.5 -14.5h-800zM750 800q-21 0 -35.5 14.5t-14.5 35.5v250l300 -300h-250z" />
<glyph unicode="&#xe023;" d="M600 23q-117 0 -224 45.5t-184.5 123t-123 184.5t-45.5 224t45.5 224t123 184.5t184.5 123t224 45.5t224 -45.5t184.5 -123t123 -184.5t45.5 -224t-45.5 -224t-123 -184.5t-184.5 -123t-224 -45.5zM600 173q116 0 214.5 57t155.5 155.5t57 214.5t-57 214.5t-155.5 155.5 t-214.5 57q-87 0 -166 -34t-136 -91t-91 -136t-34 -166q0 -116 57 -214.5t155.5 -155.5t214.5 -57zM525 500q-10 0 -17.5 7.5t-7.5 17.5v350q0 10 7.5 17.5t17.5 7.5h50q10 0 17.5 -7.5t7.5 -17.5v-275h175q10 0 17.5 -7.5t7.5 -17.5v-50q0 -10 -7.5 -17.5t-17.5 -7.5h-250z " />
<glyph unicode="&#xe024;" d="M-100 0l431 1200h209l-21 -300h162l-20 300h208l431 -1200h-538l-41 400h-242l-41 -400h-538zM488 500h224l-27 300h-170z" />
<glyph unicode="&#xe025;" d="M618 261l-327 400q-9 12 -9 21q0 18 27 18h191v450q0 21 14.5 35.5t35.5 14.5h200q21 0 35.5 -14.5t14.5 -35.5v-450h191q27 0 27 -18q0 -9 -9 -21l-327 -400q-14 -16 -32 -16t-32 16zM125 0q-10 0 -17.5 7.5t-7.5 17.5v350q0 10 7.5 17.5t17.5 7.5h50q10 0 17.5 -7.5 t7.5 -17.5v-175h900v175q0 10 7.5 17.5t17.5 7.5h50q10 0 17.5 -7.5t7.5 -17.5v-350q0 -10 -7.5 -17.5t-17.5 -7.5h-1050z" />
<glyph unicode="&#xe026;" d="M600 23q-117 0 -224 45.5t-184.5 123t-123 184.5t-45.5 224t45.5 224t123 184.5t184.5 123t224 45.5t224 -45.5t184.5 -123t123 -184.5t45.5 -224t-45.5 -224t-123 -184.5t-184.5 -123t-224 -45.5zM600 173q116 0 214.5 57t155.5 155.5t57 214.5t-57 214.5t-155.5 155.5 t-214.5 57q-87 0 -166 -34t-136 -91t-91 -136t-34 -166q0 -116 57 -214.5t155.5 -155.5t214.5 -57zM568 286l-223 275q-9 10 -9 21q0 18 27 18h137v275q0 10 7.5 17.5t17.5 7.5h150q10 0 17.5 -7.5t7.5 -17.5v-275h137q27 0 27 -18q0 -11 -9 -21l-223 -275q-13 -16 -32 -16 t-32 16z" />
<glyph unicode="&#xe027;" d="M600 23q-117 0 -224 45.5t-184.5 123t-123 184.5t-45.5 224t45.5 224t123 184.5t184.5 123t224 45.5t224 -45.5t184.5 -123t123 -184.5t45.5 -224t-45.5 -224t-123 -184.5t-184.5 -123t-224 -45.5zM600 173q116 0 214.5 57t155.5 155.5t57 214.5t-57 214.5t-155.5 155.5 t-214.5 57q-87 0 -166 -34t-136 -91t-91 -136t-34 -166q0 -116 57 -214.5t155.5 -155.5t214.5 -57zM525 300q-10 0 -17.5 7.5t-7.5 17.5v275h-137q-27 0 -27 18q0 11 9 21l223 275q13 16 32 16t32 -16l223 -275q9 -10 9 -21q0 -18 -27 -18h-137v-275q0 -10 -7.5 -17.5 t-17.5 -7.5h-150z" />
<glyph unicode="&#xe028;" d="M50 0q-12 0 -27 4t-17 9q-6 12 -6 37l1 425q0 25 7 49l185 652q2 5 5 9.5t7.5 7.5t9.5 5t10 2h750q10 0 19.5 -7t12.5 -17l186 -652q7 -24 7 -49v-425q0 -12 -4 -27t-8 -17q-13 -6 -38 -6h-1100zM475 300h250q10 0 19.5 7t11.5 17l38 152q2 10 11.5 17t19.5 7h150 q10 0 16 7t4 18l-87 450q-2 11 -11 18t-19 7h-556q-10 0 -19 -7t-11 -18l-87 -450q-1 -2 -1 -5q0 -8 6 -14t15 -6h150q10 0 19.5 -7t11.5 -17l38 -152q2 -10 11.5 -17t19.5 -7z" />
<glyph unicode="&#xe029;" d="M600 23q-117 0 -224 45.5t-184.5 123t-123 184.5t-45.5 224t45.5 224t123 184.5t184.5 123t224 45.5t224 -45.5t184.5 -123t123 -184.5t45.5 -224t-45.5 -224t-123 -184.5t-184.5 -123t-224 -45.5zM600 173q116 0 214.5 57t155.5 155.5t57 214.5t-57 214.5t-155.5 155.5 t-214.5 57q-87 0 -166 -34t-136 -91t-91 -136t-34 -166q0 -116 57 -214.5t155.5 -155.5t214.5 -57zM540 380q-9 -8 -20 -8q-20 0 -20 28v400q0 28 20 28q11 0 20 -8l253 -190q17 -12 17 -30t-17 -30z" />
<glyph unicode="&#xe030;" d="M600 23q-117 0 -224 45.5t-184.5 123t-123 184.5t-45.5 224t45.5 224t123 184.5t184.5 123t224 45.5q192 0 347 -117l135 135q5 5 10 5q8 0 8 -13v-362q0 -10 -7.5 -17.5t-17.5 -7.5h-362q-13 0 -13 8q0 5 5 10l133 133q-109 76 -238 76q-87 0 -166 -34t-136 -91 t-91 -136t-34 -166q0 -116 57 -214.5t155.5 -155.5t214.5 -57t214.5 57t155.5 155.5t57 214.5h150q0 -117 -45.5 -224t-123 -184.5t-184.5 -123t-224 -45.5z" />
<glyph unicode="&#xe031;" d="M23 600q0 117 45.5 224t123 184.5t184.5 123t224 45.5q192 0 347 -117l135 135q5 5 10 5q8 0 8 -13v-361q0 -5 -2 -10t-5.5 -8.5t-8.5 -5.5t-10 -2h-361q-13 0 -13 8q0 5 5 10l134 134q-110 75 -239 75q-87 0 -166 -34t-136 -91t-91 -136t-34 -166h-150zM118 7 q-6 -6 -10 -6q-8 0 -8 13v360q0 11 7.5 18.5t18.5 7.5h360q13 0 13 -8q0 -4 -6 -10l-133 -133q110 -76 240 -76q116 0 214.5 57t155.5 155.5t57 214.5h150q0 -117 -45.5 -224t-123 -184.5t-184.5 -123t-224 -45.5q-192 0 -348 118z" />
<glyph unicode="&#xe032;" d="M125 0q-10 0 -17.5 7.5t-7.5 17.5v1150q0 10 7.5 17.5t17.5 7.5h1050q10 0 17.5 -7.5t7.5 -17.5v-1150q0 -10 -7.5 -17.5t-17.5 -7.5h-1050zM225 100h850q10 0 17.5 7.5t7.5 17.5v850q0 10 -7.5 17.5t-17.5 7.5h-850q-10 0 -17.5 -7.5t-7.5 -17.5v-850q0 -10 7.5 -17.5 t17.5 -7.5zM325 800q-10 0 -17.5 7.5t-7.5 17.5v50q0 10 7.5 17.5t17.5 7.5h50q10 0 17.5 -7.5t7.5 -17.5v-50q0 -10 -7.5 -17.5t-17.5 -7.5h-50zM525 800q-10 0 -17.5 7.5t-7.5 17.5v50q0 10 7.5 17.5t17.5 7.5h450q10 0 17.5 -7.5t7.5 -17.5v-50q0 -10 -7.5 -17.5 t-17.5 -7.5h-450zM325 600q-10 0 -17.5 7.5t-7.5 17.5v50q0 10 7.5 17.5t17.5 7.5h50q10 0 17.5 -7.5t7.5 -17.5v-50q0 -10 -7.5 -17.5t-17.5 -7.5h-50zM525 600q-10 0 -17.5 7.5t-7.5 17.5v50q0 10 7.5 17.5t17.5 7.5h450q10 0 17.5 -7.5t7.5 -17.5v-50q0 -10 -7.5 -17.5 t-17.5 -7.5h-450zM325 400q-10 0 -17.5 7.5t-7.5 17.5v50q0 10 7.5 17.5t17.5 7.5h50q10 0 17.5 -7.5t7.5 -17.5v-50q0 -10 -7.5 -17.5t-17.5 -7.5h-50zM525 400q-10 0 -17.5 7.5t-7.5 17.5v50q0 10 7.5 17.5t17.5 7.5h450q10 0 17.5 -7.5t7.5 -17.5v-50q0 -10 -7.5 -17.5 t-17.5 -7.5h-450zM325 200q-10 0 -17.5 7.5t-7.5 17.5v50q0 10 7.5 17.5t17.5 7.5h50q10 0 17.5 -7.5t7.5 -17.5v-50q0 -10 -7.5 -17.5t-17.5 -7.5h-50zM525 200q-10 0 -17.5 7.5t-7.5 17.5v50q0 10 7.5 17.5t17.5 7.5h450q10 0 17.5 -7.5t7.5 -17.5v-50q0 -10 -7.5 -17.5 t-17.5 -7.5h-450z" />
<glyph unicode="&#xe033;" d="M100 0q-41 0 -70.5 29.5t-29.5 70.5v600q0 41 29.5 70.5t70.5 29.5h100v200q0 82 59 141t141 59h300q82 0 141 -59t59 -141v-200h100q41 0 70.5 -29.5t29.5 -70.5v-600q0 -41 -29.5 -70.5t-70.5 -29.5h-900zM400 800h300v150q0 21 -15 35.5t-35 14.5h-200 q-20 0 -35 -14.5t-15 -35.5v-150z" />
<glyph unicode="&#xe034;" d="M100 0v1075q0 10 7.5 17.5t17.5 7.5h50q10 0 17.5 -7.5t7.5 -17.5v-1075h-100zM856 406q-20 0 -40.5 3t-44.5 10t-40 12.5t-45 15.5q-41 15 -63 22.5t-57.5 15t-65.5 7.5q-86 0 -160 -57q-7 -5 -15 -5q-6 0 -11 3q-14 7 -14 22v438q22 55 82 98.5t119 46.5q23 2 43 0.5 t43 -7t32.5 -8.5t38 -13t32.5 -11q31 -11 47.5 -16t43 -12.5t49 -10.5t44.5 -3q103 0 183 87q7 8 18 8q4 0 9 -2q16 -6 16 -23v-421q0 -6 -3 -12q-33 -59 -66.5 -99t-65.5 -58t-56.5 -24.5t-52.5 -6.5z" />
<glyph unicode="&#xe035;" d="M25 250q-10 0 -17.5 7.5t-7.5 17.5v300q0 116 49.5 227t131 192.5t192.5 131t227 49.5t227 -49.5t192.5 -131t131 -192.5t49.5 -227v-300q0 -10 -7.5 -17.5t-17.5 -7.5h-50q-10 0 -17.5 7.5t-7.5 17.5v300q0 127 -70.5 231.5t-184.5 161.5t-245 57t-245 -57 t-184.5 -161.5t-70.5 -231.5v-300q0 -10 -7.5 -17.5t-17.5 -7.5h-50zM220 0q-8 0 -14 6t-6 14v460q0 8 6 14t14 6h160q8 0 14 -6t6 -14v-460q0 -8 -6 -14t-14 -6h-160zM820 0q-8 0 -14 6t-6 14v460q0 8 6 14t14 6h160q8 0 14 -6t6 -14v-460q0 -8 -6 -14t-14 -6h-160z" />
<glyph unicode="&#xe036;" d="M579 214l-258 172q-21 14 -46 14h-250q-10 0 -17.5 7.5t-7.5 17.5v350q0 10 7.5 17.5t17.5 7.5h250q25 0 46 14l258 172q5 4 10 4q11 0 11 -15v-750q0 -15 -11 -15q-5 0 -10 4zM746 412l-34 34q-7 7 -7 17t7 17l119 120l-119 120q-7 7 -7 17t7 17l34 34q8 8 17 8t17 -8 l120 -119l120 119q7 7 17 7t17 -7l34 -34q7 -7 7 -17t-7 -17l-119 -120l119 -120q7 -7 7 -17t-7 -17l-34 -34q-7 -7 -17 -7t-17 7l-120 119l-120 -119q-7 -7 -17 -7t-17 7z" />
<glyph unicode="&#xe037;" d="M579 214l-258 172q-21 14 -46 14h-250q-10 0 -17.5 7.5t-7.5 17.5v350q0 10 7.5 17.5t17.5 7.5h250q25 0 46 14l258 172q5 4 10 4q11 0 11 -15v-750q0 -15 -11 -15q-5 0 -10 4zM772 308q-9 0 -16 6l-29 23q-9 7 -9 20q0 7 5 14q72 103 72 229q0 132 -78 238q-5 8 -5 15 q0 12 10 20l29 22q7 5 15 5h4q10 -1 16 -10q96 -129 96 -290q0 -154 -90 -281q-6 -9 -17 -10z" />
<glyph unicode="&#xe038;" d="M970 196q-9 0 -16 6l-42 34q-9 7 -9 19q0 8 5 15q111 150 111 328q0 90 -29.5 176t-84.5 157q-5 8 -5 16q0 12 10 19l42 33q7 5 15 5h3q11 -1 17 -10q135 -179 135 -396q0 -70 -15 -139t-45 -133t-72 -120q-7 -9 -17 -10h-3zM579 214l-258 172q-21 14 -46 14h-250 q-10 0 -17.5 7.5t-7.5 17.5v350q0 10 7.5 17.5t17.5 7.5h250q25 0 46 14l258 172q5 4 10 4q11 0 11 -15v-750q0 -15 -11 -15q-5 0 -10 4zM772 308q-9 0 -16 6l-29 23q-9 7 -9 20q0 7 5 14q72 103 72 229q0 132 -78 238q-5 8 -5 15q0 12 10 20l29 22q7 5 15 5h4q10 -1 16 -10 q96 -129 96 -290q0 -154 -90 -281q-6 -9 -17 -10z" />
<glyph unicode="&#xe039;" d="M0 600v600h500v-300h100v-100h-100v-100h-400v-100h-100zM900 400v300h-200v300h-100v200h600v-500h-200v-100h200v-200h-300zM100 800h300v300h-300v-300zM800 800h300v300h-300v-300zM200 900v100h100v-100h-100zM900 900v100h100v-100h-100zM0 0v500h200v100h100v-100 h200v-500h-500zM700 100v100h-100v100h100v200h-200v100h300v-300h200v-100h-100v-100h-200zM100 100h300v300h-300v-300zM200 200v100h100v-100h-100zM1100 200v100h100v-100h-100zM600 0v100h100v-100h-100zM900 0v100h300v-100h-300z" />
<glyph unicode="&#xe040;" d="M0 200v1000h100v-1000h-100zM200 200v1000h100v-1000h-100zM500 200v1000h200v-1000h-200zM800 200v1000h100v-1000h-100zM1000 200v1000h200v-1000h-200zM100 0v100h300v-100h-300zM500 0v91h100v-91h-100zM700 0v91h100v-91h-100zM900 0v91h200v-91h-200z" />
<glyph unicode="&#xe041;" d="M682 18l-682 682l1 475q0 10 7.5 17.5t17.5 7.5h474l682 -682q8 -8 8 -18t-8 -18l-464 -464q-8 -8 -18 -8t-18 8zM177 882q30 -30 71 -30q42 0 72 30q29 29 29 71q0 41 -29 71q-30 30 -72 30q-41 0 -71 -30q-29 -29 -29 -71q0 -43 29 -71z" />
<glyph unicode="&#xe042;" d="M682 18l-682 682l1 475q0 10 7.5 17.5t17.5 7.5h474l682 -682q8 -8 8 -18t-8 -18l-464 -464q-8 -8 -18 -8t-18 8zM982 18l-56 56l424 426l-700 700h150l682 -682q8 -8 8 -18t-8 -18l-464 -464q-8 -8 -18 -8t-18 8zM177 882q30 -30 71 -30q42 0 72 30q29 29 29 71 q0 41 -29 71q-30 30 -72 30q-41 0 -71 -30q-29 -29 -29 -71q0 -43 29 -71z" />
<glyph unicode="&#xe043;" d="M125 0q-10 0 -17.5 7.5t-7.5 17.5v975q0 25 18 43l139 139q18 18 43 18h825q75 0 75 -75v-900q0 -25 -18 -43l-64 -64q-6 -6 -10 -6q-8 0 -8 13v950q0 10 -7.5 17.5t-17.5 7.5h-700q-25 0 -43 -18l-64 -64q-6 -6 -6 -10q0 -8 13 -8h700q10 0 17.5 -7.5t7.5 -17.5v-950 q0 -10 -7.5 -17.5t-17.5 -7.5h-850z" />
<glyph unicode="&#xe044;" d="M200 -1v1151q0 21 14.5 35.5t35.5 14.5h800q21 0 35.5 -14.5t14.5 -35.5v-1150l-450 444z" />
<glyph unicode="&#xe045;" d="M375 700q-10 0 -21.5 6t-17.5 15l-57 108q-9 12 -9 31q0 7 2 14l78 301q1 10 9 17.5t19 7.5h444q11 0 19 -7.5t9 -17.5l83 -301q2 -7 2 -14q0 -19 -9 -31l-62 -108q-6 -9 -17.5 -15t-21.5 -6h-450zM25 100q-10 0 -17.5 7.5t-7.5 17.5v650q0 10 7.5 17.5t17.5 7.5h150 q10 0 21 -6.5t15 -15.5l78 -156q4 -9 15 -15.5t21 -6.5h550q7 0 14 3t13 8t9 11l78 156q4 9 15 15.5t21 6.5h150q10 0 17.5 -7.5t7.5 -17.5v-650q0 -10 -7.5 -17.5t-17.5 -7.5h-150q-10 0 -17.5 7.5t-7.5 17.5v150q0 10 -7.5 17.5t-17.5 7.5h-750q-10 0 -17.5 -7.5 t-7.5 -17.5v-150q0 -10 -7.5 -17.5t-17.5 -7.5h-150zM300 0q-10 0 -15.5 7t-3.5 17l38 152q2 6 6.5 11.5t11 9t13.5 3.5h500q10 0 19.5 -7t11.5 -17l38 -152q0 -1 1 -3v-2q0 -8 -5.5 -13.5t-14.5 -5.5h-600z" />
<glyph unicode="&#xe046;" d="M100 100q-41 0 -70.5 29.5t-29.5 70.5v600q0 41 29.5 70.5t70.5 29.5h150q2 8 6.5 21.5t24 48t45 61t72 48t102.5 21.5h200q56 0 102.5 -20.5t72.5 -50t44 -59t25 -50.5l6 -20h150q41 0 70.5 -29.5t29.5 -70.5v-600q0 -41 -29.5 -70.5t-70.5 -29.5h-1000zM900 700h100 v100h-100v-100zM600 270q95 0 162.5 67.5t67.5 162.5t-67.5 162.5t-162.5 67.5t-162.5 -67.5t-67.5 -162.5t67.5 -162.5t162.5 -67.5zM600 397q-43 0 -73 30t-30 73t30 73t73 30t73 -30t30 -73t-30 -73t-73 -30z" />
<glyph unicode="&#xe047;" d="M53 0v66q56 24 84 52q8 7 16 18t14 20.5t11 18t8 13.5l3 5l399 1006h93l385 -998q20 -50 60 -92q18 -19 36.5 -29.5t27.5 -11.5l10 -2v-66h-417v66q41 0 64 28t23 66q0 17 -7 38l-82 222h-391q-58 -145 -92 -234q-8 -20 -8 -40q0 -41 37.5 -60.5t90.5 -19.5v-66h-365z M416 521h340l-162 457z" />
<glyph unicode="&#xe048;" d="M100 0v89q41 7 70.5 32.5t29.5 65.5v827q0 24 -0.5 34t-3.5 24t-8.5 19.5t-17 13.5t-28 12.5t-42.5 11.5v71l471 -1q57 0 115.5 -20.5t108 -57t80.5 -94t31 -124.5q0 -37 -8.5 -71.5t-22 -60t-29.5 -47.5t-32.5 -37t-30 -25.5t-22.5 -15.5l-8 -5l9 -3t23 -9t34 -15.5 t40 -23t42.5 -31t40 -40t34.5 -49t23 -58.5t9 -69q0 -57 -19.5 -107t-52 -86.5t-74 -66t-88 -47t-90.5 -27t-84 -9.5h-500zM400 700h139q78 0 130.5 48.5t52.5 122.5q0 41 -8.5 70.5t-29.5 55.5t-62.5 39.5t-103.5 13.5h-118v-350zM400 200h216q80 0 121 50.5t41 130.5 q0 90 -62.5 154.5t-156.5 64.5h-159v-400z" />
<glyph unicode="&#xe049;" d="M200 0v97q186 16 200 98l173 832q4 17 4 32q0 35 -22 48.5t-85 30.5q-12 3 -18 5v57h425l2 -57q-83 -19 -116 -45.5t-40 -66.5l-132 -839q-3 -16 -3 -28q0 -32 24.5 -47t87.5 -20v-97h-500z" />
<glyph unicode="&#xe050;" d="M600 0v100q4 0 11 0.5t24 3t30 7t24 15t11 24.5v850h-200q-25 0 -37 -0.5t-31 -2t-28.5 -5.5t-22 -11t-18 -17.5t-9.5 -26.5t-4 -37h-50v300h1000v-300h-50q0 21 -4 37t-9.5 26.5t-18 17.5t-22 11t-28.5 5.5t-31 2t-37 0.5h-200v-850q0 -22 25 -34.5t50 -13.5l25 -2v-100 h-400zM50 33l-125 167h75v800h-75l125 167l125 -167h-75v-800h75z" />
<glyph unicode="&#xe051;" d="M400 200v100q4 0 11 0.5t24 3t30 7t24 15t11 24.5v650h-200q-25 0 -37 -0.5t-31 -2t-28.5 -5.5t-22 -11t-18 -17.5t-9.5 -26.5t-4 -37h-50v300h1000v-300h-50q0 21 -4 37t-9.5 26.5t-18 17.5t-22 11t-28.5 5.5t-31 2t-37 0.5h-200v-650q0 -22 25 -34.5t50 -13.5l25 -2 v-100h-400zM200 -75l-167 125l167 125v-75h800v75l167 -125l-167 -125v75h-800v-75z" />
<glyph unicode="&#xe052;" d="M50 900q-21 0 -35.5 14.5t-14.5 35.5v100q0 21 14.5 35.5t35.5 14.5h600q21 0 35.5 -14.5t14.5 -35.5v-100q0 -21 -14.5 -35.5t-35.5 -14.5h-600zM50 600q-21 0 -35.5 14.5t-14.5 35.5v100q0 21 14.5 35.5t35.5 14.5h1000q21 0 35.5 -14.5t14.5 -35.5v-100 q0 -21 -14.5 -35.5t-35.5 -14.5h-1000zM50 300q-21 0 -35.5 14.5t-14.5 35.5v100q0 21 14.5 35.5t35.5 14.5h800q21 0 35.5 -14.5t14.5 -35.5v-100q0 -21 -14.5 -35.5t-35.5 -14.5h-800zM50 0q-21 0 -35.5 14.5t-14.5 35.5v100q0 21 14.5 35.5t35.5 14.5h1100 q21 0 35.5 -14.5t14.5 -35.5v-100q0 -21 -14.5 -35.5t-35.5 -14.5h-1100z" />
<glyph unicode="&#xe053;" d="M250 900q-21 0 -35.5 14.5t-14.5 35.5v100q0 21 14.5 35.5t35.5 14.5h700q21 0 35.5 -14.5t14.5 -35.5v-100q0 -21 -14.5 -35.5t-35.5 -14.5h-700zM50 600q-21 0 -35.5 14.5t-14.5 35.5v100q0 21 14.5 35.5t35.5 14.5h1100q21 0 35.5 -14.5t14.5 -35.5v-100 q0 -21 -14.5 -35.5t-35.5 -14.5h-1100zM250 300q-21 0 -35.5 14.5t-14.5 35.5v100q0 21 14.5 35.5t35.5 14.5h700q21 0 35.5 -14.5t14.5 -35.5v-100q0 -21 -14.5 -35.5t-35.5 -14.5h-700zM50 0q-21 0 -35.5 14.5t-14.5 35.5v100q0 21 14.5 35.5t35.5 14.5h1100 q21 0 35.5 -14.5t14.5 -35.5v-100q0 -21 -14.5 -35.5t-35.5 -14.5h-1100z" />
<glyph unicode="&#xe054;" d="M550 900q-21 0 -35.5 14.5t-14.5 35.5v100q0 21 14.5 35.5t35.5 14.5h600q21 0 35.5 -14.5t14.5 -35.5v-100q0 -21 -14.5 -35.5t-35.5 -14.5h-600zM150 600q-21 0 -35.5 14.5t-14.5 35.5v100q0 21 14.5 35.5t35.5 14.5h1000q21 0 35.5 -14.5t14.5 -35.5v-100 q0 -21 -14.5 -35.5t-35.5 -14.5h-1000zM350 300q-21 0 -35.5 14.5t-14.5 35.5v100q0 21 14.5 35.5t35.5 14.5h800q21 0 35.5 -14.5t14.5 -35.5v-100q0 -21 -14.5 -35.5t-35.5 -14.5h-800zM50 0q-21 0 -35.5 14.5t-14.5 35.5v100q0 21 14.5 35.5t35.5 14.5h1100 q21 0 35.5 -14.5t14.5 -35.5v-100q0 -21 -14.5 -35.5t-35.5 -14.5h-1100z" />
<glyph unicode="&#xe055;" d="M50 900q-21 0 -35.5 14.5t-14.5 35.5v100q0 21 14.5 35.5t35.5 14.5h1100q21 0 35.5 -14.5t14.5 -35.5v-100q0 -21 -14.5 -35.5t-35.5 -14.5h-1100zM50 600q-21 0 -35.5 14.5t-14.5 35.5v100q0 21 14.5 35.5t35.5 14.5h1100q21 0 35.5 -14.5t14.5 -35.5v-100 q0 -21 -14.5 -35.5t-35.5 -14.5h-1100zM50 300q-21 0 -35.5 14.5t-14.5 35.5v100q0 21 14.5 35.5t35.5 14.5h1100q21 0 35.5 -14.5t14.5 -35.5v-100q0 -21 -14.5 -35.5t-35.5 -14.5h-1100zM50 0q-21 0 -35.5 14.5t-14.5 35.5v100q0 21 14.5 35.5t35.5 14.5h1100 q21 0 35.5 -14.5t14.5 -35.5v-100q0 -21 -14.5 -35.5t-35.5 -14.5h-1100z" />
<glyph unicode="&#xe056;" d="M50 900q-21 0 -35.5 14.5t-14.5 35.5v100q0 21 14.5 35.5t35.5 14.5h100q21 0 35.5 -14.5t14.5 -35.5v-100q0 -21 -14.5 -35.5t-35.5 -14.5h-100zM350 900q-21 0 -35.5 14.5t-14.5 35.5v100q0 21 14.5 35.5t35.5 14.5h800q21 0 35.5 -14.5t14.5 -35.5v-100 q0 -21 -14.5 -35.5t-35.5 -14.5h-800zM50 600q-21 0 -35.5 14.5t-14.5 35.5v100q0 21 14.5 35.5t35.5 14.5h100q21 0 35.5 -14.5t14.5 -35.5v-100q0 -21 -14.5 -35.5t-35.5 -14.5h-100zM350 600q-21 0 -35.5 14.5t-14.5 35.5v100q0 21 14.5 35.5t35.5 14.5h800 q21 0 35.5 -14.5t14.5 -35.5v-100q0 -21 -14.5 -35.5t-35.5 -14.5h-800zM50 300q-21 0 -35.5 14.5t-14.5 35.5v100q0 21 14.5 35.5t35.5 14.5h100q21 0 35.5 -14.5t14.5 -35.5v-100q0 -21 -14.5 -35.5t-35.5 -14.5h-100zM350 300q-21 0 -35.5 14.5t-14.5 35.5v100 q0 21 14.5 35.5t35.5 14.5h800q21 0 35.5 -14.5t14.5 -35.5v-100q0 -21 -14.5 -35.5t-35.5 -14.5h-800zM50 0q-21 0 -35.5 14.5t-14.5 35.5v100q0 21 14.5 35.5t35.5 14.5h100q21 0 35.5 -14.5t14.5 -35.5v-100q0 -21 -14.5 -35.5t-35.5 -14.5h-100zM350 0q-21 0 -35.5 14.5 t-14.5 35.5v100q0 21 14.5 35.5t35.5 14.5h800q21 0 35.5 -14.5t14.5 -35.5v-100q0 -21 -14.5 -35.5t-35.5 -14.5h-800z" />
<glyph unicode="&#xe057;" d="M300 0v1100h100v-1100h-100zM550 900q-21 0 -35.5 14.5t-14.5 35.5v100q0 21 14.5 35.5t35.5 14.5h100q21 0 35.5 -14.5t14.5 -35.5v-100q0 -21 -14.5 -35.5t-35.5 -14.5h-100zM550 600q-21 0 -35.5 14.5t-14.5 35.5v100q0 21 14.5 35.5t35.5 14.5h500q21 0 35.5 -14.5 t14.5 -35.5v-100q0 -21 -14.5 -35.5t-35.5 -14.5h-500zM100 425v75h-200v100h200v75l167 -125zM550 300q-21 0 -35.5 14.5t-14.5 35.5v100q0 21 14.5 35.5t35.5 14.5h300q21 0 35.5 -14.5t14.5 -35.5v-100q0 -21 -14.5 -35.5t-35.5 -14.5h-300zM550 0q-21 0 -35.5 14.5 t-14.5 35.5v100q0 21 14.5 35.5t35.5 14.5h600q21 0 35.5 -14.5t14.5 -35.5v-100q0 -21 -14.5 -35.5t-35.5 -14.5h-600z" />
<glyph unicode="&#xe058;" d="M50 900q-21 0 -35.5 14.5t-14.5 35.5v100q0 21 14.5 35.5t35.5 14.5h100q21 0 35.5 -14.5t14.5 -35.5v-100q0 -21 -14.5 -35.5t-35.5 -14.5h-100zM800 0v1100h100v-1100h-100zM50 600q-21 0 -35.5 14.5t-14.5 35.5v100q0 21 14.5 35.5t35.5 14.5h500q21 0 35.5 -14.5 t14.5 -35.5v-100q0 -21 -14.5 -35.5t-35.5 -14.5h-500zM1100 425l-167 125l167 125v-75h200v-100h-200v-75zM50 300q-21 0 -35.5 14.5t-14.5 35.5v100q0 21 14.5 35.5t35.5 14.5h300q21 0 35.5 -14.5t14.5 -35.5v-100q0 -21 -14.5 -35.5t-35.5 -14.5h-300zM50 0 q-21 0 -35.5 14.5t-14.5 35.5v100q0 21 14.5 35.5t35.5 14.5h600q21 0 35.5 -14.5t14.5 -35.5v-100q0 -21 -14.5 -35.5t-35.5 -14.5h-600z" />
<glyph unicode="&#xe059;" d="M75 200q-31 0 -53 22t-22 53v650q0 31 22 53t53 22h750q31 0 53 -22t22 -53v-650q0 -31 -22 -53t-53 -22h-750zM1200 300l-300 300l300 300v-600z" />
<glyph unicode="&#xe060;" d="M44 0q-18 0 -31 13t-13 31v1012q0 18 13 31t31 13h1112q18 0 31 -13t13 -31v-1012q0 -18 -13 -31t-31 -13h-1112zM100 262l247 183l298 -131l-74 156l293 318l236 -288v500h-1000v-738zM342 616q-56 0 -95 39.5t-39 95t39 94.5t95 39t95 -39t39 -94.5t-39 -95t-95 -39.5z " />
<glyph unicode="&#xe061;" d="M1098 886l-214 214l95 96q13 14 32 14t33 -13l153 -153q13 -13 13 -33t-13 -33zM398 186l-214 214l614 614l215 -214zM-16 -16l110 335l223 -223z" />
<glyph unicode="&#xe062;" d="M553 -14q-9 9 -26 25.5t-66.5 70t-95 108t-103 134t-99.5 154.5q-63 138 -63 260q0 92 35.5 177t95.5 148t143 101t174.5 38t174.5 -37t143 -99t95.5 -146.5t35.5 -176.5q0 -154 -73 -270q-72 -113 -165 -235t-149 -187zM552.5 493q111.5 0 190 78.5t78.5 190t-78.5 190 t-190.5 78.5q-72 0 -134 -36t-98 -97.5t-36 -134.5q0 -112 78.5 -190.5t190 -78.5z" />
<glyph unicode="&#xe063;" d="M600 23q-117 0 -224 45.5t-184.5 123t-123 184.5t-45.5 224t45.5 224t123 184.5t184.5 123t224 45.5t224 -45.5t184.5 -123t123 -184.5t45.5 -224t-45.5 -224t-123 -184.5t-184.5 -123t-224 -45.5zM600 173v854q-87 0 -166 -34t-136 -91t-91 -136t-34 -166 q0 -116 57 -214.5t155.5 -155.5t214.5 -57z" />
<glyph unicode="&#xe064;" d="M554 3q-84 5 -161.5 34t-139.5 78.5t-99 125t-37 164.5q0 61 14.5 121t38.5 111t56.5 105t67.5 101.5t73 102.5t72 107t65 115.5t50 126.5q21 -72 57.5 -143.5t76 -130t83 -118t82.5 -117t70 -116t49.5 -126t18.5 -136.5q0 -71 -25.5 -135t-68.5 -111t-99 -82t-118.5 -54 t-125.5 -23zM400 216q9 -4 19 -4q22 0 26 25l6 34q1 7 -0.5 14.5t-5.5 14.5t-10 12q-5 4 -14 12t-29.5 40.5t-32.5 72.5q-11 38 -11 98q0 82 17 174q1 1 1 3q0 8 -7 8q-8 0 -15 -10q-22 -31 -41.5 -67t-39.5 -98t-20 -118q0 -40 13 -74.5t29 -55.5t41.5 -39.5t39.5 -25.5 t34 -16z" />
<glyph unicode="&#xe065;" d="M1113 900l-113 113l108 115h0.5t1.5 0.5t2.5 1t3.5 1t4.5 1t5.5 0.5h6q36 0 68 -32q29 -29 29 -58q0 -8 -2 -14.5t-4 -9.5l-2 -3zM350 0q-165 0 -257.5 92.5t-92.5 257.5v400q0 165 92.5 257.5t257.5 92.5h400q50 0 105 -13l-187 -187h-368q-41 0 -70.5 -29.5 t-29.5 -70.5v-500q0 -41 29.5 -70.5t70.5 -29.5h500q41 0 70.5 29.5t29.5 70.5v182l200 200v-332q0 -165 -93.5 -257.5t-256.5 -92.5h-400zM486 391l55 170l355 355l113 -113l-362 -362z" />
<glyph unicode="&#xe066;" d="M350 0q-165 0 -257.5 92.5t-92.5 257.5v400q0 165 92.5 257.5t257.5 92.5h361q-164 -146 -216 -200h-195q-41 0 -70.5 -29.5t-29.5 -70.5v-500q0 -41 29.5 -70.5t70.5 -29.5h500q41 0 70.5 29.5t29.5 70.5l200 153v-103q0 -165 -92.5 -257.5t-257.5 -92.5h-400zM823 431 q-7 -5 -10 -5q-8 0 -9 12v203q-26 1 -54.5 0t-78.5 -7t-92 -17.5t-86 -35.5t-70 -57q9 52 27.5 96t43.5 75.5t53 57t60 42t59.5 28.5t57 18.5t47 9.5t33.5 4v210q1 13 9 13q6 0 11 -5l339 -301q8 -8 8 -17q0 -10 -8 -18z" />
<glyph unicode="&#xe067;" d="M350 0q-165 0 -257.5 92.5t-92.5 257.5v400q0 165 92.5 257.5t257.5 92.5h350q60 0 127 -23l-178 -177h-349q-41 0 -70.5 -29.5t-29.5 -70.5v-500q0 -41 29.5 -70.5t70.5 -29.5h500q41 0 70.5 29.5t29.5 70.5v69l200 200v-219q0 -165 -92.5 -257.5t-257.5 -92.5h-400z M608 366l-248 248q-7 7 -7 18q0 10 7 17l101 101q7 7 18 7q10 0 17 -7l111 -111q7 -7 18 -7t18 7l395 395q6 7 17 7t18 -7l101 -101q7 -7 7 -18t-7 -17l-531 -532q-7 -7 -18 -7t-17 7z" />
<glyph unicode="&#xe068;" d="M582 18l-264 264q-6 6 -6 10q0 8 13 8h175v200h-200v-173q0 -12 -8 -12q-5 0 -10 5l-264 265q-8 8 -8 17q0 10 8 18l264 260q6 6 10 6q8 0 8 -13v-173h200v200h-175q-13 0 -13 8q0 4 6 10l264 264q8 8 18 8t18 -8l260 -264q5 -6 5 -10q0 -8 -13 -8h-170v-200h200v173 q0 13 8 13q4 0 10 -6l264 -260q8 -8 8 -18q0 -9 -8 -17l-264 -265q-5 -5 -10 -5q-8 0 -8 12v173h-200v-200h170q13 0 13 -8q0 -4 -5 -10l-260 -264q-8 -8 -18 -8t-18 8z" />
<glyph unicode="&#xe069;" d="M250 0q-21 0 -35.5 14.5t-14.5 35.5v1000q0 21 14.5 35.5t35.5 14.5h100q21 0 35.5 -14.5t14.5 -35.5v-438l464 453q13 11 21 11q15 0 15 -26v-1000q0 -26 -15 -26q-8 0 -21 11l-464 453v-438q0 -21 -14.5 -35.5t-35.5 -14.5h-100z" />
<glyph unicode="&#xe070;" d="M50 0q-21 0 -35.5 14.5t-14.5 35.5v1000q0 21 14.5 35.5t35.5 14.5h100q21 0 35.5 -14.5t14.5 -35.5v-438l464 453q13 11 21 11q15 0 15 -26v-438l464 453q13 11 21 11q15 0 15 -26v-1000q0 -26 -15 -26q-8 0 -21 11l-464 453v-438q0 -26 -15 -26q-8 0 -21 11l-464 453 v-438q0 -21 -14.5 -35.5t-35.5 -14.5h-100z" />
<glyph unicode="&#xe071;" d="M664 35l-492 480q-15 15 -15 35t15 35l492 480q13 11 21 11q15 0 15 -26v-438l464 453q13 11 21 11q15 0 15 -26v-1000q0 -26 -15 -26q-8 0 -21 11l-464 453v-438q0 -26 -15 -26q-8 0 -21 11z" />
<glyph unicode="&#xe072;" d="M243 26q-10 -6 -20 -6q-23 0 -23 30v1000q0 30 23 30q10 0 20 -6l814 -498q18 -11 18 -26t-18 -26z" />
<glyph unicode="&#xe073;" d="M250 100q-21 0 -35.5 14.5t-14.5 35.5v800q0 21 14.5 35.5t35.5 14.5h200q21 0 35.5 -14.5t14.5 -35.5v-800q0 -21 -14.5 -35.5t-35.5 -14.5h-200zM650 100q-21 0 -35.5 14.5t-14.5 35.5v800q0 21 14.5 35.5t35.5 14.5h200q21 0 35.5 -14.5t14.5 -35.5v-800 q0 -21 -14.5 -35.5t-35.5 -14.5h-200z" />
<glyph unicode="&#xe074;" d="M250 100q-21 0 -35.5 14.5t-14.5 35.5v800q0 21 14.5 35.5t35.5 14.5h800q21 0 35.5 -14.5t14.5 -35.5v-800q0 -21 -14.5 -35.5t-35.5 -14.5h-800z" />
<glyph unicode="&#xe075;" d="M36 35q-13 -11 -21 -11q-15 0 -15 26v1000q0 26 15 26q8 0 21 -11l464 -453v438q0 26 15 26q8 0 21 -11l492 -480q15 -15 15 -35t-15 -35l-492 -480q-13 -11 -21 -11q-15 0 -15 26v438z" />
<glyph unicode="&#xe076;" d="M1053 2q-21 0 -35.5 14.5t-14.5 35.5l-2 437l-463 -454q-10 -11 -20 -11q-15 0 -15 26l-2 437l-463 -455q-11 -11 -20 -11q-15 0 -15 26l-5 1000q0 26 15 26q10 0 21 -11l466 -450l-2 438q0 26 15 26q9 0 21 -11l466 -451l-2 438q0 14 6.5 25.5t18 18t25.5 6.5l100 1 q20 0 35 -14.5t15 -35.5l5 -1000q0 -21 -14.5 -35.5t-35.5 -14.5z" />
<glyph unicode="&#xe077;" d="M850 0q-21 0 -35.5 14.5t-14.5 35.5v438l-464 -453q-13 -11 -21 -11q-15 0 -15 26v1000q0 26 15 26q8 0 21 -11l464 -453v438q0 21 14.5 35.5t35.5 14.5h100q21 0 35.5 -14.5t14.5 -35.5v-1000q0 -21 -14.5 -35.5t-35.5 -14.5h-100z" />
<glyph unicode="&#xe078;" d="M129 504q-27 0 -27 16q0 10 11 21l501 540q15 15 36 15t36 -15l501 -540q11 -11 11 -21q0 -16 -27 -16h-1042zM150 200q-21 0 -35.5 14.5t-14.5 35.5v100q0 21 14.5 35.5t35.5 14.5h1000q21 0 35.5 -14.5t14.5 -35.5v-100q0 -21 -14.5 -35.5t-35.5 -14.5h-1000z" />
<glyph unicode="&#xe079;" d="M688 -4l-552 552l552 550l197 -198l-352 -353l352 -353z" />
<glyph unicode="&#xe080;" d="M513 -4l-198 198l353 353l-353 353l198 198l551 -551z" />
<glyph unicode="&#xe081;" d="M600 23q-117 0 -224 45.5t-184.5 123t-123 184.5t-45.5 224t45.5 224t123 184.5t184.5 123t224 45.5t224 -45.5t184.5 -123t123 -184.5t45.5 -224t-45.5 -224t-123 -184.5t-184.5 -123t-224 -45.5zM550 300h100q21 0 35.5 14.5t14.5 35.5v150h150q21 0 35.5 14.5 t14.5 35.5v100q0 21 -14.5 35.5t-35.5 14.5h-150v150q0 21 -14.5 35.5t-35.5 14.5h-100q-21 0 -35.5 -14.5t-14.5 -35.5v-150h-150q-21 0 -35.5 -14.5t-14.5 -35.5v-100q0 -21 14.5 -35.5t35.5 -14.5h150v-150q0 -21 14.5 -35.5t35.5 -14.5z" />
<glyph unicode="&#xe082;" d="M600 23q-117 0 -224 45.5t-184.5 123t-123 184.5t-45.5 224t45.5 224t123 184.5t184.5 123t224 45.5t224 -45.5t184.5 -123t123 -184.5t45.5 -224t-45.5 -224t-123 -184.5t-184.5 -123t-224 -45.5zM350 500h500q21 0 35.5 14.5t14.5 35.5v100q0 21 -14.5 35.5t-35.5 14.5 h-500q-21 0 -35.5 -14.5t-14.5 -35.5v-100q0 -21 14.5 -35.5t35.5 -14.5z" />
<glyph unicode="&#xe083;" d="M600 23q-117 0 -224 45.5t-184.5 123t-123 184.5t-45.5 224t45.5 224t123 184.5t184.5 123t224 45.5t224 -45.5t184.5 -123t123 -184.5t45.5 -224t-45.5 -224t-123 -184.5t-184.5 -123t-224 -45.5zM458.5 287q12.5 0 21.5 9l120 120l120 -120q9 -9 21.5 -9t21.5 9 l141 141q9 9 9 21.5t-9 21.5l-120 120l120 120q9 9 9 21.5t-9 21.5l-141 141q-9 9 -21.5 9t-21.5 -9l-120 -120l-120 120q-9 9 -21.5 9t-21.5 -9l-141 -141q-9 -9 -9 -22q0 -12 9 -21l120 -120l-120 -120q-9 -9 -9 -21q0 -13 9 -22l141 -141q9 -9 21.5 -9z" />
<glyph unicode="&#xe084;" d="M600 23q-117 0 -224 45.5t-184.5 123t-123 184.5t-45.5 224t45.5 224t123 184.5t184.5 123t224 45.5t224 -45.5t184.5 -123t123 -184.5t45.5 -224t-45.5 -224t-123 -184.5t-184.5 -123t-224 -45.5zM529 292q7 -8 17 -8t18 8l375 375q7 7 7 18t-7 18l-139 139q-7 7 -18 7 q-10 0 -17 -7l-219 -219l-84 85q-7 7 -18 7t-18 -7l-139 -139q-7 -7 -7 -18t7 -18z" />
<glyph unicode="&#xe085;" d="M600 23q-117 0 -224 45.5t-184.5 123t-123 184.5t-45.5 224t45.5 224t123 184.5t184.5 123t224 45.5t224 -45.5t184.5 -123t123 -184.5t45.5 -224t-45.5 -224t-123 -184.5t-184.5 -123t-224 -45.5zM521 486h173q7 0 22 8t35 28t37.5 48t29.5 74t12 100q0 47 -17 83 t-42.5 57t-59.5 34.5t-64 18t-59 4.5t-59 -5.5t-63 -20.5t-58 -38.5t-41.5 -63t-16.5 -89.5q0 -25 20 -25h131l11 -1q20 0 24 12q6 20 20.5 28t45.5 8q20 0 31.5 -10.5t11.5 -28.5q0 -23 -7 -34t-26 -18q-1 0 -13.5 -4t-19.5 -7.5t-20 -10.5t-22 -17t-18.5 -24t-15.5 -35 t-8 -46q-1 -8 5.5 -16.5t20.5 -8.5zM525 200h150q10 0 17.5 7.5t7.5 17.5v150q0 10 -7.5 17.5t-17.5 7.5h-150q-10 0 -17.5 -7.5t-7.5 -17.5v-150q0 -10 7.5 -17.5t17.5 -7.5z" />
<glyph unicode="&#xe086;" d="M600 23q-117 0 -224 45.5t-184.5 123t-123 184.5t-45.5 224t45.5 224t123 184.5t184.5 123t224 45.5t224 -45.5t184.5 -123t123 -184.5t45.5 -224t-45.5 -224t-123 -184.5t-184.5 -123t-224 -45.5zM525 800h150q10 0 17.5 7.5t7.5 17.5v150q0 10 -7.5 17.5t-17.5 7.5 h-150q-10 0 -17.5 -7.5t-7.5 -17.5v-150q0 -10 7.5 -17.5t17.5 -7.5zM425 300h350q10 0 17.5 7.5t7.5 17.5v50q0 10 -7.5 17.5t-17.5 7.5h-75v275q0 10 -7.5 17.5t-17.5 7.5h-250q-10 0 -17.5 -7.5t-7.5 -17.5v-50q0 -10 7.5 -17.5t17.5 -7.5h75v-200h-75q-10 0 -17.5 -7.5 t-7.5 -17.5v-50q0 -10 7.5 -17.5t17.5 -7.5z" />
<glyph unicode="&#xe087;" d="M525 0q-10 0 -17.5 7.5t-7.5 17.5v194q-103 27 -178.5 102.5t-102.5 178.5h-194q-10 0 -17.5 7.5t-7.5 17.5v150q0 10 7.5 17.5t17.5 7.5h194q27 103 102.5 178.5t178.5 102.5v194q0 10 7.5 17.5t17.5 7.5h150q10 0 17.5 -7.5t7.5 -17.5v-194q51 -13 96.5 -39.5t82 -63 t63 -82t39.5 -96.5h194q10 0 17.5 -7.5t7.5 -17.5v-150q0 -10 -7.5 -17.5t-17.5 -7.5h-194q-27 -103 -102.5 -178.5t-178.5 -102.5v-194q0 -10 -7.5 -17.5t-17.5 -7.5h-150zM500 307v168q0 3 1 6.5t2.5 6t4 5t5 4t6 2.5t6.5 1h150q10 0 17.5 -7.5t7.5 -17.5v-168 q68 23 119 74t74 119h-168q-10 0 -17.5 7.5t-7.5 17.5v150q0 10 7.5 17.5t17.5 7.5h168q-23 68 -74 119t-119 74v-168q0 -10 -7.5 -17.5t-17.5 -7.5h-150q-7 0 -12.5 3.5t-9 9t-3.5 12.5v168q-68 -23 -119 -74t-74 -119h168q10 0 17.5 -7.5t7.5 -17.5v-150q0 -5 -2 -9.5 t-5.5 -8t-8 -5.5t-9.5 -2h-168q23 -68 74 -119t119 -74z" />
<glyph unicode="&#xe088;" d="M600 23q-117 0 -224 45.5t-184.5 123t-123 184.5t-45.5 224t45.5 224t123 184.5t184.5 123t224 45.5t224 -45.5t184.5 -123t123 -184.5t45.5 -224t-45.5 -224t-123 -184.5t-184.5 -123t-224 -45.5zM600 173q116 0 214.5 57t155.5 155.5t57 214.5t-57 214.5t-155.5 155.5 t-214.5 57q-87 0 -166 -34t-136 -91t-91 -136t-34 -166q0 -116 57 -214.5t155.5 -155.5t214.5 -57zM441 377l-64 64q-7 7 -7 18q0 10 7 17l124 124l-124 124q-7 7 -7 17q0 11 7 18l64 64q7 7 18 7q10 0 17 -7l124 -124l124 124q7 7 17 7q11 0 18 -7l64 -64q7 -7 7 -18 q0 -10 -7 -17l-124 -124l124 -124q7 -7 7 -17q0 -11 -7 -18l-64 -64q-7 -7 -18 -7q-10 0 -17 7l-124 124l-124 -124q-7 -7 -17 -7q-11 0 -18 7z" />
<glyph unicode="&#xe089;" d="M600 23q-117 0 -224 45.5t-184.5 123t-123 184.5t-45.5 224t45.5 224t123 184.5t184.5 123t224 45.5t224 -45.5t184.5 -123t123 -184.5t45.5 -224t-45.5 -224t-123 -184.5t-184.5 -123t-224 -45.5zM600 173q116 0 214.5 57t155.5 155.5t57 214.5t-57 214.5t-155.5 155.5 t-214.5 57q-87 0 -166 -34t-136 -91t-91 -136t-34 -166q0 -116 57 -214.5t155.5 -155.5t214.5 -57zM532 326l-202 203q-8 8 -8 17q0 10 8 18l106 106q7 8 17 8t18 -8l79 -79l197 197q6 7 17 7t18 -7l106 -106q7 -7 7 -18t-7 -17l-320 -321q-7 -7 -18 -7t-18 7z" />
<glyph unicode="&#xe090;" d="M600 23q-117 0 -224 45.5t-184.5 123t-123 184.5t-45.5 224t45.5 224t123 184.5t184.5 123t224 45.5t224 -45.5t184.5 -123t123 -184.5t45.5 -224t-45.5 -224t-123 -184.5t-184.5 -123t-224 -45.5zM238 375l587 587q-105 65 -225 65q-87 0 -166 -34t-136 -91t-91 -136 t-34 -166q0 -120 65 -225zM600 173q116 0 214.5 57t155.5 155.5t57 214.5q0 115 -62 219l-584 -584q104 -62 219 -62z" />
<glyph unicode="&#xe091;" d="M561 91l-522 427q-16 13 -16 32t16 32l522 427q12 9 21 9q18 0 18 -27v-291h550q21 0 35.5 -14.5t14.5 -35.5v-200q0 -21 -14.5 -35.5t-35.5 -14.5h-550v-291q0 -27 -18 -27q-9 0 -21 9z" />
<glyph unicode="&#xe092;" d="M639 91q-12 -9 -21 -9q-18 0 -18 27v291h-550q-21 0 -35.5 14.5t-14.5 35.5v200q0 21 14.5 35.5t35.5 14.5h550v291q0 27 18 27q9 0 21 -9l522 -427q16 -13 16 -32t-16 -32z" />
<glyph unicode="&#xe093;" d="M550 0q-21 0 -35.5 14.5t-14.5 35.5v550h-291q-27 0 -27 18q0 9 9 21l427 522q13 16 32 16t32 -16l427 -522q9 -12 9 -21q0 -18 -27 -18h-291v-550q0 -21 -14.5 -35.5t-35.5 -14.5h-200z" />
<glyph unicode="&#xe094;" d="M618 39l-427 522q-9 12 -9 21q0 18 27 18h291v550q0 21 14.5 35.5t35.5 14.5h200q21 0 35.5 -14.5t14.5 -35.5v-550h291q27 0 27 -18q0 -9 -9 -21l-427 -522q-13 -16 -32 -16t-32 16z" />
<glyph unicode="&#xe095;" d="M639 191q-12 -9 -21 -9q-18 0 -18 27v291q-94 -2 -182 -20t-170.5 -52t-147 -92.5t-100.5 -135.5q5 105 27 193.5t67.5 167t113 135t167 91.5t225.5 42v262q0 27 18 27q9 0 21 -9l522 -427q16 -13 16 -32t-16 -32z" />
<glyph unicode="&#xe096;" d="M786 680l-106 106q-7 7 -7 18t7 18l249 249l-94 94q-11 11 -11 20q0 15 26 15h300q21 0 35.5 -14.5t14.5 -35.5v-300q0 -26 -15 -26q-9 0 -20 11l-94 94l-249 -249q-7 -7 -18 -7t-18 7zM50 0q-21 0 -35.5 14.5t-14.5 35.5v300q0 26 15 26q9 0 20 -11l94 -94l249 249 q7 7 18 7t18 -7l106 -106q7 -7 7 -18t-7 -18l-249 -249l94 -94q11 -11 11 -20q0 -15 -26 -15h-300z" />
<glyph unicode="&#xe097;" d="M650 600q-21 0 -35.5 14.5t-14.5 35.5v300q0 26 15 26q9 0 20 -11l94 -94l249 249q7 7 18 7t18 -7l106 -106q7 -7 7 -18t-7 -18l-249 -249l94 -94q11 -11 11 -20q0 -15 -26 -15h-300zM186 80l-106 106q-7 7 -7 18t7 18l249 249l-94 94q-11 11 -11 20q0 15 26 15h300 q21 0 35.5 -14.5t14.5 -35.5v-300q0 -26 -15 -26q-9 0 -20 11l-94 94l-249 -249q-7 -7 -18 -7t-18 7z" />
<glyph unicode="&#xe098;" d="M450 0q-21 0 -35.5 14.5t-14.5 35.5v350h-350q-21 0 -35.5 14.5t-14.5 35.5v200q0 21 14.5 35.5t35.5 14.5h350v350q0 21 14.5 35.5t35.5 14.5h200q21 0 35.5 -14.5t14.5 -35.5v-350h350q21 0 35.5 -14.5t14.5 -35.5v-200q0 -21 -14.5 -35.5t-35.5 -14.5h-350v-350 q0 -21 -14.5 -35.5t-35.5 -14.5h-200z" />
<glyph unicode="&#xe099;" d="M250 400q-21 0 -35.5 14.5t-14.5 35.5v200q0 21 14.5 35.5t35.5 14.5h800q21 0 35.5 -14.5t14.5 -35.5v-200q0 -21 -14.5 -35.5t-35.5 -14.5h-800z" />
<glyph unicode="&#xe100;" d="M600 100q-15 0 -34 1.5t-30 3.5l-11 1q-7 1 -12.5 5.5t-9 10.5t-3.5 13v224l-158 -158q-8 -8 -19 -8t-18 6l-106 106q-6 7 -6 18t8 19l158 158h-224q-7 0 -13 3.5t-10.5 9t-5.5 12.5q-6 41 -6 75q0 15 1.5 34t3.5 30l1 11q2 10 10.5 17.5t18.5 7.5h224l-158 158 q-8 8 -8 19t6 18l106 106q7 6 18 6t19 -8l158 -158v224q0 7 3.5 13t9 10.5t12.5 5.5q41 6 75 6q15 0 34 -1.5t30 -3.5l11 -1q10 -2 17.5 -10.5t7.5 -18.5v-224l158 158q8 8 19 8t18 -6l106 -106q6 -7 6 -18t-8 -19l-158 -158h224q7 0 13 -3.5t10.5 -9t5.5 -12.5q6 -41 6 -75 q0 -15 -1.5 -34t-3.5 -30l-1 -11q-2 -10 -10.5 -17.5t-18.5 -7.5h-224l158 -158q8 -8 8 -19t-6 -18l-106 -106q-7 -6 -18 -6t-19 8l-158 158v-224q0 -10 -7.5 -18.5t-17.5 -10.5q-41 -6 -75 -6z" />
<glyph unicode="&#xe101;" d="M600 23q-117 0 -224 45.5t-184.5 123t-123 184.5t-45.5 224t45.5 224t123 184.5t184.5 123t224 45.5t224 -45.5t184.5 -123t123 -184.5t45.5 -224t-45.5 -224t-123 -184.5t-184.5 -123t-224 -45.5zM573 500h54q20 0 37.5 14.5t21.5 34.5l58 302q1 3 1 9q0 11 -5 20.5 t-14.5 14.5t-21.5 5h-208q-18 0 -29.5 -11.5t-11.5 -28.5q0 -6 1 -9l58 -302q4 -20 21.5 -34.5t37.5 -14.5zM525 200h150q10 0 17.5 7.5t7.5 17.5v150q0 10 -7.5 17.5t-17.5 7.5h-150q-10 0 -17.5 -7.5t-7.5 -17.5v-150q0 -10 7.5 -17.5t17.5 -7.5z" />
<glyph unicode="&#xe102;" d="M100 600v175q0 10 -7.5 17.5t-17.5 7.5h-50q-10 0 -17.5 7.5t-7.5 17.5v50q0 10 7.5 17.5t17.5 7.5h61q11 0 18 3t7 8q0 4 9 52l25 128q5 25 19 45q2 3 5 7t13.5 15t21.5 19.5t26.5 15.5t29.5 7q6 0 12 -1t10.5 -2t8.5 -2t6 -2l2 -1q22 -10 44 -23l196 -118 q21 -13 36 -24q28 -21 37 -12q11 13 49 35l196 118q22 13 45 23q17 7 38 7q23 0 47 -16.5t37 -33.5l13 -16q14 -21 18 -45l25 -123l8 -44q1 -9 8.5 -14.5t17.5 -5.5h61q10 0 17.5 -7.5t7.5 -17.5v-50q0 -10 -7.5 -17.5t-17.5 -7.5h-50q-10 0 -17.5 -7.5t-7.5 -17.5v-175 h-400v300h-200v-300h-400zM756 900h219q10 0 15 7t2 17l-51 149q-3 12 -14 12q-6 0 -12 -6l-166 -162q-5 -4 -5 -10q0 -7 12 -7zM225 900h231q13 0 13 7q0 4 -6 10l-177 157q-7 5 -12 5q-10 0 -15 -12l-51 -143q-1 -3 -1 -8q0 -7 5 -11.5t13 -4.5zM125 0q-7 0 -12.5 3.5 t-9 9t-3.5 12.5v375h400v-400h-375zM700 0v400h400v-375q0 -10 -7.5 -17.5t-17.5 -7.5h-375z" />
<glyph unicode="&#xe103;" d="M48 27q-18 -18 -28 -18q-20 0 -20 47q0 64 42 102q8 8 50.5 45t66.5 58q19 17 35 47t13 61q-10 62 -10 121q0 196 122 352q31 40 62.5 71t66.5 55t69.5 42t78.5 33.5t86 27t99 25t110.5 25.5t128.5 30.5t145 38.5q5 2 13.5 -2t14.5 -10.5t6 -11.5q-11 -969 -597 -969 q-80 0 -185 19.5t-117 18.5q-4 1 -12.5 0t-34 -14.5t-52.5 -40.5zM325 377q19 23 58 52t98 64t101.5 58.5t109.5 59.5q70 37 118.5 69t102 79.5t99 111t86.5 148.5q25 57 25 66q0 4 -7 13q-3 4 -8 4q-14 0 -60 -57q-38 -47 -119 -103.5t-142 -89.5l-62 -33q-56 -30 -102 -57 t-104 -68t-102.5 -80.5t-85.5 -91t-64 -104.5q-34 -76 -34 -105q0 -13 8 -13q20 0 84 77z" />
<glyph unicode="&#xe104;" d="M512 7q-86 25 -155.5 89.5t-108 151t-38.5 176.5q0 51 16.5 105.5t36.5 93t37 90.5t17 100q0 39 -11 80q72 -14 117.5 -87t45.5 -157q0 -74 -36 -119q56 33 92 77.5t51 91.5t23 98t17 103.5t24.5 102.5t52 101.5t94.5 93.5q-20 -42 -20 -88q0 -56 31 -121t76 -128 t91 -128t82 -142t42 -149q2 -18 2 -36q0 -79 -30.5 -151.5t-99 -137.5t-169.5 -107q100 93 100 203q0 46 -10.5 88.5t-25 73t-31 86t-25.5 119.5q-5 -36 -33 -75.5t-65.5 -72.5t-80.5 -71.5t-79 -72.5t-60 -75t-24 -80q3 -82 54 -126z" />
<glyph unicode="&#xe105;" d="M600 106q-81 0 -159.5 22.5t-140 59t-116.5 82.5t-94.5 95t-68.5 95t-43 82.5t-14 58t14 57.5t42.5 82t68 95t94.5 95t116.5 82.5t140 59t160.5 22.5t160.5 -22.5t140 -59t116.5 -82.5t94.5 -95t68 -95t42.5 -82t14 -57.5t-14 -58t-43 -82.5t-68.5 -95t-94.5 -95 t-116.5 -82.5t-140 -59t-159.5 -22.5zM600 240q57 0 112 16t100 44.5t83 60.5t70.5 70.5t53 67t37.5 57.5q9 15 9 36q0 28 -14 48q-89 117 -163 189q-12 12 -17 12q-2 0 -2 -3q0 -4 6 -19q25 -57 25 -119q0 -124 -88 -212t-212 -88t-212 88t-88 212q0 59 23 114q6 14 6 19 q0 3 -3 3q-4 0 -16 -12q-70 -69 -160 -184q-15 -18 -15 -48q0 -20 9 -35q22 -36 47 -71t70 -82t92.5 -81t113 -58.5t133.5 -24.5zM491 495q12 -11 33 -11q25 0 42 17l35 34q13 13 13 31q0 20 -17 36q-44 44 -89 117q-12 20 -32 20q-15 0 -28 -12l-35 -36q-21 -21 -21 -53 q0 -15 6 -27q37 -68 93 -116z" />
<glyph unicode="&#xe106;" d="M444 0l31 120q-91 20 -175.5 68.5t-143.5 106.5t-103.5 119t-66.5 110t-22 76q0 21 14 57.5t42.5 82.5t68 95t94.5 95t116.5 82.5t140 59t160.5 22.5q61 0 126 -15l32 121h148l-314 -1200h-148zM777 135l46 173q77 49 136 117t97 131q9 15 9 36q0 28 -14 48 q-54 70 -107 130l47 181q108 -85 176.5 -192t68.5 -159q0 -26 -19.5 -71t-59.5 -102t-93 -112t-129 -104.5t-158 -75.5zM509 251l41 154q-107 18 -178.5 101.5t-71.5 193.5q0 59 23 114q6 14 6 19q0 3 -3 3q-4 0 -16 -12q-70 -69 -160 -184q-15 -18 -15 -48q0 -20 9 -35 q18 -30 39 -60t57 -70.5t74 -73t90 -61t105 -41.5zM491 495q12 -11 33 -11q25 0 42 17l12 11l22 86l-3 4q-45 44 -89 117q-12 20 -32 20q-15 0 -28 -12l-35 -36q-21 -22 -21 -53q0 -15 6 -27q37 -68 93 -116z" />
<glyph unicode="&#xe107;" d="M-47 0q-25 0 -40 17.5t-15 41.5q0 23 12 41l642 1066q17 29 44 29q31 0 52 -36l642 -1056q12 -18 12 -41q0 -26 -15 -44t-40 -18h-1294zM155 200h345v75q0 10 7.5 17.5t17.5 7.5h150q10 0 17.5 -7.5t7.5 -17.5v-75h345l-445 723zM573 350q-20 0 -37.5 14.5t-21.5 34.5 l-58 252q-1 3 -1 9q0 17 11.5 28.5t29.5 11.5h208q18 0 29.5 -11.5t11.5 -28.5q0 -6 -1 -9l-58 -252q-4 -20 -21.5 -34.5t-37.5 -14.5h-54z" />
<glyph unicode="&#xe108;" d="M445 22q-9 -4 -18 -4q-8 0 -14 4t-9.5 11t-3.5 17v64q0 20 100 113v263l-359 -249q-11 -8 -20 -8q-21 0 -21 29v41q0 20 11 44.5t26 38.5l363 325v339q0 41 20 75.5t54.5 54.5t75.5 20q62 0 106 -44t44 -106v-339l363 -325q15 -14 26 -38.5t11 -44.5v-41q0 -29 -21 -29 q-9 0 -20 8l-359 249v-263q100 -93 100 -113v-64q0 -32 -27 -32q-9 0 -18 4l-205 128z" />
<glyph unicode="&#xe109;" d="M0 900v150q0 21 14.5 35.5t35.5 14.5h50v50q0 21 14.5 35.5t35.5 14.5h100q21 0 35.5 -14.5t14.5 -35.5v-50h500v50q0 21 14.5 35.5t35.5 14.5h100q21 0 35.5 -14.5t14.5 -35.5v-50h50q21 0 35.5 -14.5t14.5 -35.5v-150h-1100zM50 0q-21 0 -35.5 14.5t-14.5 35.5v750 h1100v-750q0 -21 -14.5 -35.5t-35.5 -14.5h-1000zM100 500h100v100h-100v-100zM300 500h100v100h-100v-100zM500 500h100v100h-100v-100zM700 500h100v100h-100v-100zM900 500h100v100h-100v-100zM100 300h100v100h-100v-100zM300 300h100v100h-100v-100zM500 300h100v100 h-100v-100zM700 300h100v100h-100v-100zM900 300h100v100h-100v-100zM100 100h100v100h-100v-100zM300 100h100v100h-100v-100zM500 100h100v100h-100v-100zM700 100h100v100h-100v-100zM900 100h100v100h-100v-100z" />
<glyph unicode="&#xe110;" d="M50 200q-21 0 -35.5 14.5t-14.5 35.5v100q0 21 14.5 35.5t35.5 14.5h209l600 600h241v150q0 26 15 26q9 0 20 -11l249 -230q15 -14 15 -35t-15 -35l-249 -230q-11 -11 -20 -11q-15 0 -15 26v150h-159l-600 -600h-291zM381 678l-122 122h-209q-21 0 -35.5 14.5t-14.5 35.5 v100q0 21 14.5 35.5t35.5 14.5h291l181 -181zM1135 35q-11 -11 -20 -11q-15 0 -15 26v150h-241l-181 181l141 141l122 -122h159v150q0 26 15 26q9 0 20 -11l249 -230q15 -14 15 -35t-15 -35z" />
<glyph unicode="&#xe111;" d="M200 0v300h-100q-41 0 -70.5 29.5t-29.5 70.5v600q0 41 29.5 70.5t70.5 29.5h1000q41 0 70.5 -29.5t29.5 -70.5v-600q0 -41 -29.5 -70.5t-70.5 -29.5h-596z" />
<glyph unicode="&#xe112;" d="M100 900v250q0 21 14.5 35.5t35.5 14.5h200q21 0 35.5 -14.5t14.5 -35.5v-250h-300zM800 900v250q0 21 14.5 35.5t35.5 14.5h200q21 0 35.5 -14.5t14.5 -35.5v-250h-300zM600 0q-96 0 -174 20t-129 51t-89 77t-58 89t-32 96t-15 89.5t-3 77.5v300h300v-250v-52 q0 -43 2.5 -70t14 -59t32 -49.5t58.5 -30t93 -12.5t93 12.5t58.5 31.5t32 51t14 59t2.5 69v50v250h300v-300q0 -31 -1.5 -59t-8 -67.5t-16.5 -73.5t-29 -73t-44.5 -70.5t-63.5 -61.5t-85.5 -50.5t-111.5 -32.5t-140 -12z" />
<glyph unicode="&#xe113;" d="M196 212l-197 199l551 551l550 -551l-198 -199l-353 353z" />
<glyph unicode="&#xe114;" d="M551 238l-551 551l198 198l353 -352l353 352l197 -198z" />
<glyph unicode="&#xe115;" d="M1065 115l-230 249q-11 11 -11 20q0 15 26 15h150v401h-381l-215 200h746q21 0 35.5 -14.5t14.5 -35.5v-551h150q26 0 26 -15q0 -9 -11 -20l-230 -249q-14 -15 -35 -15t-35 15zM50 100q-21 0 -35.5 14.5t-14.5 35.5v550h-150q-26 0 -26 15q0 9 11 20l230 249q14 15 35 15 t35 -15l230 -249q11 -11 11 -20q0 -15 -26 -15h-150v-400h385l215 -200h-750z" />
<glyph unicode="&#xe116;" d="M450 0q-21 0 -35.5 14.5t-14.5 35.5v50h-31q-18 0 -32.5 10t-20.5 19l-5 10l-201 961h-54q-20 0 -35 14.5t-15 35.5t15 35.5t35 14.5h94q17 0 31 -11t18 -27l38 -162h896q24 0 39 -19q11 -13 11 -31q0 -7 -1 -11l-100 -475q-5 -21 -27 -42.5t-55 -21.5h-633l48 -200h535 q21 0 35.5 -14.5t14.5 -35.5t-14.5 -35.5t-35.5 -14.5h-50v-50q0 -21 -14.5 -35.5t-35.5 -14.5t-35.5 14.5t-14.5 35.5v50h-300v-50q0 -21 -14.5 -35.5t-35.5 -14.5z" />
<glyph unicode="&#xe117;" d="M0 900v100h200q0 41 29.5 70.5t70.5 29.5h300q41 0 70.5 -29.5t29.5 -70.5h500v-100h-1200zM0 0v800h1200v-800h-1200z" />
<glyph unicode="&#xe118;" d="M0 400v600h200q0 41 29.5 70.5t70.5 29.5h300q42 0 71 -29.5t29 -70.5h500v-200h-1000zM0 0l300 700h1200l-300 -700h-1200z" />
<glyph unicode="&#xe119;" d="M565 15l-230 249q-11 11 -11 20q0 15 26 15h150v601h-150q-26 0 -26 15q0 9 11 20l230 249q14 15 35 15t35 -15l230 -249q11 -11 11 -20q0 -15 -26 -15h-150v-601h150q26 0 26 -15q0 -9 -11 -20l-230 -249q-14 -15 -35 -15t-35 15z" />
<glyph unicode="&#xe120;" d="M264 335l-249 229q-14 14 -14 35q0 22 14 36l249 229q11 11 21 11q15 0 15 -26v-149h600v149q0 26 15 26q10 0 21 -11l249 -229q14 -14 14 -35q0 -22 -14 -36l-249 -229q-11 -11 -21 -11q-15 0 -15 25v151h-600v-151q0 -25 -15 -25q-10 0 -21 11z" />
<glyph unicode="&#xe121;" d="M31 400l172 739q5 21 23 41t38 20h672q20 0 38 -22.5t23 -45.5l172 -732h-1138zM100 0q-41 0 -70.5 29.5t-29.5 70.5v100q0 41 29.5 70.5t70.5 29.5h1000q41 0 70.5 -29.5t29.5 -70.5v-100q0 -41 -29.5 -70.5t-70.5 -29.5h-1000zM800 100h100v100h-100v-100zM1000 100 h100v100h-100v-100z" />
<glyph unicode="&#xe122;" d="M1150 150q-21 0 -35.5 14.5t-14.5 35.5v850q0 21 14.5 35.5t35.5 14.5t35.5 -14.5t14.5 -35.5v-850q0 -21 -14.5 -35.5t-35.5 -14.5zM208 100q-20 0 -34.5 14t-18.5 35q-55 337 -55 351v250v6q0 16 1 23.5t6.5 14t17.5 6.5h200l675 250v-850l-675 200h-38l47 -276 q3 -16 -5.5 -20t-29.5 -4h-7h-84zM0 500q-4 0 -11 0.5t-24 6t-30 15t-24 30t-11 48.5v50q0 19 5.5 35t14.5 26t19.5 17.5t21 11.5t19.5 6.5t14 2.5l6 1v-250z" />
<glyph unicode="&#xe123;" d="M600 200q-57 0 -115 5t-104 12t-88.5 15.5t-73.5 17.5t-54.5 16t-35.5 12l-11 4q-18 8 -31 28t-13 40.5t14 35t33 14.5h17l118 173l63 327q15 77 76 140t144 83l-18 32q-2 5 -2 14q0 14 9 22.5t25 8.5h94q34 0 34 -26q0 -9 -2 -14l-18 -37q55 -13 102.5 -47t77.5 -80 t40 -96l63 -327l118 -173h17q19 0 33 -14.5t14 -35.5q0 -13 -6 -27t-16 -25t-22 -15q-8 -4 -23 -9.5t-65 -19.5t-103 -25t-132.5 -20t-158.5 -9zM600 0q-35 0 -63 30.5t-39 79.5q50 -6 102 -6q53 0 102 6q-12 -49 -39.5 -79.5t-62.5 -30.5z" />
<glyph unicode="&#xe124;" d="M445 20l-45 234l-224 -78l78 224l-234 45l180 155l-180 155l234 45l-78 224l224 -78l45 234l155 -180l155 180l45 -234l224 78l-78 -224l234 -45l-180 -155l180 -155l-234 -45l78 -224l-224 78l-45 -234l-155 180z" />
<glyph unicode="&#xe125;" d="M600 100q-7 0 -42 25t-66 50l-31 25h-61q-45 0 -72.5 18t-27.5 57v400q0 36 20 63l145 196l96 198q13 28 37.5 48t51.5 20h50q26 0 50 -20t37 -48.5t13 -56.5v-150l-28 -125h328q40 0 70 -40.5t30 -84.5v-100q0 -45 -29 -74l-238 -344q-16 -24 -38 -40.5t-45 -16.5h-250z M636 200h214l250 375v125h-450l50 225v175h-50l-100 -212l-150 -213v-375h100zM50 200q-21 0 -35.5 14.5t-14.5 35.5v500q0 21 14.5 35.5t35.5 14.5h100q21 0 35.5 -14.5t14.5 -35.5v-500q0 -21 -14.5 -35.5t-35.5 -14.5h-100z" />
<glyph unicode="&#xe126;" d="M650 0q-27 0 -51.5 20t-37.5 48l-96 198l-145 196q-20 27 -20 63v400q0 27 14 44t35.5 24t50.5 7h61q124 100 139 100h250q16 0 32.5 -8.5t28.5 -21t22 -27.5l238 -344q29 -29 29 -74v-100q0 -44 -30 -84.5t-70 -40.5h-328q28 -118 28 -125v-150q0 -44 -30 -84.5 t-70 -40.5h-50zM50 400q-21 0 -35.5 14.5t-14.5 35.5v500q0 21 14.5 35.5t35.5 14.5h100q21 0 35.5 -14.5t14.5 -35.5v-500q0 -21 -14.5 -35.5t-35.5 -14.5h-100zM650 100h50v175l-50 225h450v125l-250 375h-214l-136 -100h-100v-375l150 -213z" />
<glyph unicode="&#xe127;" d="M473 100q-7 0 -90 81t-83 94v525q0 17 14 35.5t28 28.5l14 9l363 230q12 6 24 6q17 0 29 -12l110 -112q13 -14 13 -34q0 -19 -11 -32l-84 -121h302q54 0 97 -15.5t69 -50t26 -82.5q0 -72 -55 -111t-139 -39h-106l-131 -339q-6 -21 -19.5 -41t-28.5 -20h-342zM500 200h293 l131 339q6 21 19.5 41t28.5 20h203q16 0 25.5 15t9.5 36q0 9 -2.5 17.5t-6.5 15.5t-11 11.5t-15 4.5h-456h-7h-6h-5.5t-6 0.5t-5 1.5t-5 2t-4 2.5t-4 4t-2.5 4.5q-6 11 -6 20q0 13 11 27l146 183l-86 83l-339 -236v-503zM50 200q-21 0 -35.5 14.5t-14.5 35.5v500 q0 21 14.5 35.5t35.5 14.5h100q21 0 35.5 -14.5t14.5 -35.5v-500q0 -21 -14.5 -35.5t-35.5 -14.5h-100z" />
<glyph unicode="&#xe128;" d="M379 100q-10 0 -21 11t-17.5 24.5t-9.5 25.5l-131 339h-106q-85 0 -139.5 39t-54.5 111q0 48 26 82.5t68.5 50t97.5 15.5h302l-85 121q-11 14 -11 32q0 19 14 34l110 112q12 12 29 12q12 0 24 -6l366 -230q2 -1 6 -3.5t14 -10.5t18 -16.5t14.5 -20t6.5 -22.5v-525 q0 -9 -43 -52.5t-87.5 -83t-48.5 -39.5h-342zM400 200h294l106 89v503l-342 236l-88 -83l146 -183q10 -13 10 -26q0 -9 -5 -21q-2 -2 -3.5 -4.5t-4 -4t-4 -2.5t-5 -2t-5 -1.5t-6 -0.5h-6h-6.5h-6h-475v-100h221q15 0 29 -20t20 -41zM1050 200q-21 0 -35.5 14.5t-14.5 35.5 v500q0 21 14.5 35.5t35.5 14.5h100q21 0 35.5 -14.5t14.5 -35.5v-500q0 -21 -14.5 -35.5t-35.5 -14.5h-100z" />
<glyph unicode="&#xe129;" d="M400 300q-17 0 -35.5 14t-28.5 28l-9 14l-230 363q-6 12 -6 24q0 17 12 29l112 110q14 13 34 13q19 0 32 -11l121 -84v302q0 54 15.5 97t50 69t82.5 26q72 0 111 -55t39 -139v-106l339 -131q9 -3 19 -7.5t19.5 -10.5t16 -14t6.5 -16v-342q0 -7 -81 -90t-94 -83h-525z M408 400h503l89 100v293l-339 131q-9 3 -19 7.5t-19.5 10.5t-16 14.5t-6.5 15.5v203q0 16 -15 25.5t-36 9.5q-12 0 -23 -4t-18.5 -12t-7.5 -19v-456v-5q0 -12 -0.5 -17.5t-4 -12.5t-10.5 -10q-11 -6 -20 -6q-13 0 -27 11l-183 146l-83 -86zM450 0q-21 0 -35.5 14.5 t-14.5 35.5v100q0 21 14.5 35.5t35.5 14.5h500q21 0 35.5 -14.5t14.5 -35.5v-100q0 -21 -14.5 -35.5t-35.5 -14.5h-500z" />
<glyph unicode="&#xe130;" d="M350 1100q-21 0 -35.5 14.5t-14.5 35.5v100q0 21 14.5 35.5t35.5 14.5h500q21 0 35.5 -14.5t14.5 -35.5v-100q0 -21 -14.5 -35.5t-35.5 -14.5h-500zM450 6q-72 0 -110 54t-38 138v302l-121 -84q-13 -11 -32 -11q-20 0 -34 13l-112 110q-12 12 -12 29q0 12 6 24l230 363 q0 1 1.5 3l6 8t9 11t11.5 11.5t13.5 11.5t15 8t16.5 3h525q13 0 94 -83t81 -90v-342q0 -15 -20 -28.5t-41 -19.5l-339 -131v-106q0 -84 -39 -139t-111 -55zM400 125q0 -11 7.5 -19t18.5 -12t23 -4q10 0 19 2.5t16 6.5t11.5 11t4.5 15v203q0 10 11 20.5t24.5 17t25.5 10.5 l339 131v293l-89 100h-503l-236 -339l83 -86l183 146q14 11 27 11q9 0 20 -6q2 -1 4.5 -2.5t4 -4t2.5 -4t2 -5t1.5 -5t0.5 -6v-5.5v-6v-7v-456z" />
<glyph unicode="&#xe131;" d="M600 22q-118 0 -225 45.5t-184.5 123t-123 184.5t-45.5 225t45.5 225t123 184.5t184.5 123t225 45.5t225 -45.5t184.5 -123t123 -184.5t45.5 -225t-45.5 -225t-123 -184.5t-184.5 -123t-225 -45.5zM639 345l275 224q16 12 16 31t-16 32l-275 223q-10 9 -21 9 q-18 0 -18 -27v-137h-275q-10 0 -17.5 -7.5t-7.5 -17.5v-150q0 -5 2 -9.5t5.5 -8t8 -5.5t9.5 -2h275v-137q0 -27 18 -27q11 0 21 9z" />
<glyph unicode="&#xe132;" d="M600 22q-118 0 -225 45.5t-184.5 123t-123 184.5t-45.5 225t45.5 225t123 184.5t184.5 123t225 45.5t225 -45.5t184.5 -123t123 -184.5t45.5 -225t-45.5 -225t-123 -184.5t-184.5 -123t-225 -45.5zM561 345q10 -9 21 -9q18 0 18 27v137h275q10 0 17.5 7.5t7.5 17.5v150 q0 10 -7.5 17.5t-17.5 7.5h-275v137q0 27 -18 27q-11 0 -21 -9l-275 -223q-16 -13 -16 -32t16 -32z" />
<glyph unicode="&#xe133;" d="M600 22q-118 0 -225 45.5t-184.5 123t-123 184.5t-45.5 225t45.5 225t123 184.5t184.5 123t225 45.5t225 -45.5t184.5 -123t123 -184.5t45.5 -225t-45.5 -225t-123 -184.5t-184.5 -123t-225 -45.5zM525 300h150q10 0 17.5 7.5t7.5 17.5v275h137q27 0 27 18q0 11 -9 21 l-223 275q-13 16 -32 16t-32 -16l-223 -275q-9 -10 -9 -21q0 -18 27 -18h137v-275q0 -10 7.5 -17.5t17.5 -7.5z" />
<glyph unicode="&#xe134;" d="M600 22q-118 0 -225 45.5t-184.5 123t-123 184.5t-45.5 225t45.5 225t123 184.5t184.5 123t225 45.5t225 -45.5t184.5 -123t123 -184.5t45.5 -225t-45.5 -225t-123 -184.5t-184.5 -123t-225 -45.5zM568 286q13 -16 32 -16t32 16l223 275q9 10 9 21q0 18 -27 18h-137v275 q0 10 -7.5 17.5t-17.5 7.5h-150q-10 0 -17.5 -7.5t-7.5 -17.5v-275h-137q-27 0 -27 -18q0 -11 9 -21z" />
<glyph unicode="&#xe135;" d="M600 1176q116 0 222.5 -46t184 -123.5t123.5 -184t46 -222.5t-46 -222.5t-123.5 -184t-184 -123.5t-222.5 -46t-222.5 46t-184 123.5t-123.5 184t-46 222.5t46 222.5t123.5 184t184 123.5t222.5 46zM915 212q30 29 46.5 47t34.5 49t21 63q-13 8 -37 8.5t-36 7.5 q-15 7 -49.5 15t-51.5 19q-13 -1 -43 -1q-86 0 -121 -24q-29 -20 -49 -20q-12 0 -17 8q-4 5 -4 20q0 5 1 16.5t0 14.5q-6 13 -26.5 17.5t-24.5 6.5q2 25 -3.5 47.5t-20.5 22.5q-13 0 -33 -21q-10 -10 -20 -10q-9 0 -17 8t-12 19.5t-4 24.5q0 33 25 42q6 -1 26 -1.5t33.5 -4 t19.5 -13.5q12 -19 32 -37t34 -27l14 -9q2 10 9.5 37.5t7.5 43.5q0 2 -2 16v3.5t-0.5 4.5t-0.5 3q0 13 7 22.5t17 20t14 22.5q6 14 10.5 35t8 31t15.5 22.5t34 21.5q-2 9 -2 11q0 13 12 26q8 0 23 -1.5t22 -1.5q28 0 44 20q-10 23 -31 42.5t-37.5 29.5t-49 27t-43.5 23 q7 23 7 33q0 9 -5 11q37 -15 68 -15q7 0 14 1t11.5 2t8 2t4.5 2l2 1q1 5 1 14q0 23 -16 37.5t-37 20t-46.5 14.5t-38.5 19q-11 -2 -18 -2q-9 0 -19 2q-15 -12 -36.5 -20.5t-35.5 -12t-43 -8t-39 -6.5q-6 -2 -18 -2q-8 0 -23.5 1.5t-23.5 1.5q-13 0 -26 -3 q-20 -7 -51.5 -26.5t-34.5 -34.5q-3 -11 6.5 -22.5t8.5 -18.5q-3 -34 -27.5 -91t-29.5 -79q-4 -15 -4 -31q0 -22 10 -63.5t10 -61.5q0 -12 -3 -24q0 -9 17 -44.5t16 -59.5q12 0 23 -5t23.5 -15t19.5 -14q16 -8 33 -15t40.5 -15t34.5 -12q21 -9 50 -30.5t56 -36.5t54 -15 q7 0 10 1q3 -6 3 -13q0 -14 -20.5 -47t-17.5 -52q13 -21 23 -34.5t27.5 -27.5t36.5 -18q0 -7 -3.5 -16.5t-3.5 -14.5q0 -9 5 -16q104 -2 221 112zM693 1003h-1h1zM613 994q0 -17 8 -42t17 -45t9 -23q-10 2 -31 5t-35.5 5t-32.5 8t-30 14q3 11 16 29.5t16 25.5q11 -11 19 -11 q9 0 22.5 15t21.5 19z" />
<glyph unicode="&#xe136;" d="M126 18l-111 110q-15 15 -15 37q0 21 15 37l600 599q-15 46 -15 92q0 81 41 152t115 112q77 43 151 43q81 0 155 -52l-259 -138l145 -232l251 126q1 -7 1 -23q0 -81 -40 -142.5t-112 -101.5q-72 -41 -153 -41q-51 0 -100 18l-596 -596q-15 -16 -37 -16q-21 0 -36 16z" />
<glyph unicode="&#xe137;" horiz-adv-x="1220" d="M100 896q-41 0 -70.5 29.5t-29.5 70.5v100q0 41 29.5 70.5t70.5 29.5h1000q41 0 70.5 -29.5t29.5 -70.5v-100q0 -41 -29.5 -70.5t-70.5 -29.5h-1000zM900 996h200v100h-200v-100zM100 496q-41 0 -70.5 29.5t-29.5 70.5v100q0 41 29.5 70.5t70.5 29.5h1000 q41 0 70.5 -29.5t29.5 -70.5v-100q0 -41 -29.5 -70.5t-70.5 -29.5h-1000zM600 596h500v100h-500v-100zM100 96q-41 0 -70.5 29.5t-29.5 70.5v100q0 41 29.5 70.5t70.5 29.5h1000q41 0 70.5 -29.5t29.5 -70.5v-100q0 -41 -29.5 -70.5t-70.5 -29.5h-1000zM800 196h300v100 h-300v-100z" />
<glyph unicode="&#xe138;" d="M150 1100q-21 0 -35.5 14.5t-14.5 35.5t14.5 35.5t35.5 14.5h900q21 0 35.5 -14.5t14.5 -35.5t-14.5 -35.5t-35.5 -14.5h-900zM500 0v500l-350 500h900l-350 -500v-300z" />
<glyph unicode="&#xe139;" d="M0 500v400q0 41 29.5 70.5t70.5 29.5h300v100q0 41 29.5 70.5t70.5 29.5h200q41 0 70.5 -29.5t29.5 -70.5v-100h300q41 0 70.5 -29.5t29.5 -70.5v-400h-500v100h-200v-100h-500zM500 1000h200v100h-200v-100zM100 100q-41 0 -70.5 29.5t-29.5 70.5v200h1200v-200 q0 -41 -29.5 -70.5t-70.5 -29.5h-1000z" />
<glyph unicode="&#xe140;" d="M328 730l-199 199l-94 -94q-11 -11 -20 -11q-15 0 -15 26v300q0 21 14.5 35.5t35.5 14.5h300q26 0 26 -15q0 -9 -11 -20l-94 -94l199 -199q7 -7 7 -18t-7 -18l-106 -106q-7 -7 -18 -7t-18 7zM836 730l-106 106q-7 7 -7 18t7 18l199 199l-94 94q-11 11 -11 20q0 15 26 15 h300q21 0 35.5 -14.5t14.5 -35.5v-300q0 -26 -15 -26q-9 0 -20 11l-94 94l-199 -199q-7 -7 -18 -7t-18 7zM50 0q-21 0 -35.5 14.5t-14.5 35.5v300q0 26 15 26q9 0 20 -11l94 -94l199 199q7 7 18 7t18 -7l106 -106q7 -7 7 -18t-7 -18l-199 -199l94 -94q11 -11 11 -20 q0 -15 -26 -15h-300zM850 0q-26 0 -26 15q0 9 11 20l94 94l-199 199q-7 7 -7 18t7 18l106 106q7 7 18 7t18 -7l199 -199l94 94q11 11 20 11q15 0 15 -26v-300q0 -21 -14.5 -35.5t-35.5 -14.5h-300z" />
<glyph unicode="&#xe141;" d="M596 0q-121 0 -231.5 47t-190.5 127t-127 190.5t-47 231.5t47 231.5t127 190t190.5 127t231.5 47.5t231.5 -47.5t190 -127t127 -190t47.5 -231.5t-47.5 -231.5t-127 -190.5t-190 -127t-231.5 -47zM596 182q112 0 207.5 55.5t151 151t55.5 207.5t-55.5 207.5t-151 151 t-207.5 55.5t-207.5 -55.5t-151 -151t-55.5 -207.5t55.5 -207.5t151 -151t207.5 -55.5zM454.5 795q-22.5 0 -38.5 16.5t-16 39t16 38.5t38.5 16t38.5 -16t16 -38.5t-16 -39t-38.5 -16.5zM601 522q-18 0 -34 7t-28 18.5t-18.5 28t-6.5 33.5q0 32 20.5 56.5t51.5 29.5l122 126 l1 1q-9 14 -9 28q0 23 16 39t38.5 16t38.5 -16t16 -38.5t-16 -39t-38 -16.5q-15 0 -29 10l-55 -145q17 -23 17 -51q0 -36 -25.5 -61.5t-61.5 -25.5zM345.5 600q-22.5 0 -38.5 16t-16 39q0 15 7 27.5t20 19.5t27 7q23 0 39 -16t16 -38.5t-16 -38.5t-38.5 -16zM854.5 600 q-22.5 0 -38.5 16t-16 38.5t16 38.5t38.5 16t38.5 -16t16 -38.5t-16 -38.5t-38.5 -16z" />
<glyph unicode="&#xe142;" d="M217 93q-70 0 -129 32t-93 89q-38 60 -38 135q0 55 21.5 107.5t62.5 93.5l511 511q26 26 39 38.5t33 29.5t39 28q91 55 198 55q80 0 152 -33q78 -36 129.5 -103t66.5 -154q7 -33 7 -68q0 -51 -13 -99.5t-38 -92.5t-61 -80l-482 -476q-16 -16 -38 -16q-21 0 -35 14 q-17 16 -17 37q0 19 14 32l469 470q99 99 99 212q0 60 -26 113.5t-73 89.5t-107 47q-22 4 -47 4q-34 0 -66.5 -10t-56.5 -23t-55.5 -38t-48 -41.5t-48.5 -47.5l-391 -390q-34 -31 -51.5 -48.5t-40 -45.5t-32.5 -56t-10 -58q0 -74 47 -113.5t108 -39.5q74 0 125 51l548 548 q24 24 24 53q0 10 -4 22q-5 11 -13 19t-18.5 12.5t-22.5 4.5q-26 0 -50 -23q-13 -12 -39 -38l-341 -338q-15 -15 -36 -15t-34 13q-14 13 -14 34t14 35q327 333 361 367q17 17 31.5 28.5t32.5 21t38 14t44 4.5q14 0 29 -1q44 -8 74.5 -35.5t43.5 -68.5q8 -27 8 -52 q0 -76 -53 -129q-12 -11 -32 -32t-79.5 -81t-114.5 -115t-124.5 -123.5t-123 -119.5t-96.5 -89t-57 -45q-56 -27 -120 -27z" />
<glyph unicode="&#xe143;" d="M649 88q-62 85 -145.5 174t-150 152.5t-126.5 127.5t-93.5 124.5t-33.5 117.5q0 83 44 154.5t115.5 112.5t149.5 41q33 0 64.5 -8.5t62.5 -25t60 -44.5t53 -65q35 49 76.5 81.5t83.5 47t87 14.5q78 0 147.5 -41t112.5 -112.5t43 -154.5q0 -57 -33.5 -117.5t-94 -124.5 t-126.5 -127.5t-150 -152.5t-146 -174zM649 322q6 0 16 6.5t25 19.5t30.5 27t35 33.5t35.5 35t35.5 35t31.5 30.5q4 4 12 13q43 41 63.5 62t52 55t46 55t26 46t11.5 44q0 79 -53 133.5t-120 54.5q-28 0 -55 -13.5t-48 -34t-42.5 -44t-38 -44t-34 -34t-32.5 -13.5 q-16 0 -35.5 19t-40 45.5t-43 53.5t-54 46t-65.5 19q-67 0 -122.5 -55.5t-55.5 -132.5q0 -23 13.5 -50.5t46 -65t57.5 -63.5t76 -75l22 -22q15 -14 44 -44t50.5 -51t46 -44t41 -35t22.5 -12z" />
<glyph unicode="&#xe144;" d="M495 388l-19 18l-141 141q-66 66 -66 159t66 159l283 283q65 66 158.5 66t159.5 -66l141 -141q66 -66 66 -160q0 -28 -14 -64t-34 -66.5t-42 -52.5l-29 -29q-31 53 -77 99l-18 18l95 95l-247 248l-389 -389l212 -212zM423 -14q-93 0 -159 66l-141 141q-66 66 -66 159.5 t66 159.5l55 55q29 -55 75 -102l18 -17l-95 -95l247 -248l389 389l-212 212l105 105q10 -8 19 -17l141 -141q66 -66 66 -159t-66 -159l-283 -283q-66 -66 -159 -66z" />
<glyph unicode="&#xe145;" d="M300 0q-27 0 -50 13.5t-36.5 36.5t-13.5 50v953q0 21 30 46.5t81 48t129 37.5t163 15t162 -15t127 -38t79 -48t29 -46v-953q0 -41 -29.5 -70.5t-70.5 -29.5h-600zM300 300h600v700h-600v-700zM600 46q43 0 73.5 30.5t30.5 73.5t-30.5 73.5t-73.5 30.5t-73.5 -30.5 t-30.5 -73.5t30.5 -73.5t73.5 -30.5z" />
<glyph unicode="&#xe146;" d="M0 0l203 280l307 308l-210 212h300l267 279l-35 36q-15 14 -15 35t15 35q15 15 35 15q21 0 35 -15l283 -282q15 -15 15 -36q0 -20 -15 -35q-14 -15 -35 -15t-35 15l-36 35l-279 -267v-300l-212 210l-308 -307z" />
<glyph unicode="&#xe147;" d="M755 5q-206 0 -324 158q-36 48 -69 133t-45 204h-217l100 100h112q1 47 6 100h-218l100 100h134q14 60 34.5 113t39.5 87t39 57q117 141 297 141q242 0 354 -189q60 -104 66 -209h-181q0 37 -12 70t-32 55.5t-44.5 40.5t-51 28.5t-49.5 16t-42 5.5t-40.5 -5.5 t-49.5 -20.5t-53 -38t-49 -62.5t-39 -89.5h379l-100 -100h-300q-6 -50 -6 -100h406l-100 -100h-300q9 -74 33 -132t52.5 -91t61.5 -54.5t59 -29t47 -7.5q22 0 50.5 7.5t60.5 24.5t58 41t43.5 61t17.5 80h174q-30 -171 -128 -278q-107 -117 -274 -117z" />
<glyph unicode="&#xe148;" d="M600 17v79q-150 16 -237 103q-40 40 -52.5 93.5t-15.5 139.5h139q5 -77 48.5 -126t117.5 -65v335l-27 8q-28 8 -49.5 15.5t-47.5 18.5t-46 23.5t-41 28.5t-35.5 36t-26.5 44t-18 54.5t-6 64.5q0 56 16.5 103.5t44.5 81.5t66.5 59.5t81 39t88.5 18.5v77h100v-78 q38 -5 72.5 -14.5t75.5 -31.5t71 -53.5t52 -84t24 -118.5h-159q-4 36 -10.5 59t-21 45t-40 35.5t-64.5 20.5v-307l64 -13q34 -7 64 -16.5t70 -32t67.5 -52.5t47.5 -80t20 -112q0 -93 -40.5 -162.5t-115.5 -110t-177 -48.5v-77h-100zM600 754v274q-29 -4 -50 -11t-42 -21.5 t-31.5 -41.5t-10.5 -65q0 -84 63 -113q17 -7 71 -22zM700 237q22 2 42.5 6.5t45 15.5t41.5 27t29 42t12 59.5t-12.5 59.5t-38 44.5t-53 31t-66.5 24.5v-310z" />
<glyph unicode="&#xe149;" d="M715 102q-23 0 -76 17t-111 32.5t-96 11.5q-25 -2 -51.5 -8t-47.5 -13.5t-38 -14.5t-26 -11l-9 -5l-55 145q4 3 13.5 9t14 9l12 8t12 9.5t11.5 10.5t14 13t15 16q54 61 54 146q0 62 -30 123h-221v100h166q-23 47 -44 104q-19 52 -19 103q0 116 95 202q97 88 263 88 q84 0 160.5 -40t123.5 -109.5t47 -147.5h-153q0 40 -19.5 71.5t-49.5 48.5t-59.5 26t-55.5 9q-37 0 -79 -14.5t-62 -35.5q-41 -44 -41 -101q0 -26 13.5 -63t26.5 -61t37 -66q2 -3 3 -5t2.5 -4.5t2.5 -4.5h242v-100h-197q3 -21 3 -46q0 -47 -10.5 -94t-26.5 -70 q-45 -62 -99 -112q36 11 88.5 18t69.5 7q31 0 99.5 -16.5t102.5 -16.5q83 0 136 30l50 -147q-31 -19 -58 -30.5t-55 -15.5t-42 -4.5t-46 -0.5z" />
<glyph unicode="&#xe150;" d="M335 14q-14 -15 -35 -15t-35 15l-230 250q-11 11 -11 20q0 16 26 16h150v900h200v-900h150q26 0 26 -16q0 -9 -11 -20zM800 0v900h-150q-26 0 -26 15q0 9 11 20l230 249q14 15 35 15t35 -15l230 -249q11 -11 11 -20q0 -15 -26 -15h-150v-900h-200z" />
<glyph unicode="&#xe151;" d="M335 14q-14 -15 -35 -15t-35 15l-230 250q-11 11 -11 20q0 16 26 16h150v900h200v-900h150q26 0 26 -16q0 -9 -11 -20zM700 700v500h300v-500h-100v100h-100v-100h-100zM801 900h100v200h-100v-200zM700 0v150l200 250h-200v100h300v-150l-200 -250h200v-100h-300z" />
<glyph unicode="&#xe152;" d="M335 14q-14 -15 -35 -15t-35 15l-230 250q-11 11 -11 20q0 16 26 16h150v900h200v-900h150q26 0 26 -16q0 -9 -11 -20zM700 700v150l200 250h-200v100h300v-150l-200 -250h200v-100h-300zM700 0v500h300v-500h-100v100h-100v-100h-100zM801 200h100v200h-100v-200z" />
<glyph unicode="&#xe153;" d="M335 14q-14 -15 -35 -15t-35 15l-230 250q-11 11 -11 20q0 16 26 16h150v900h200v-900h150q26 0 26 -16q0 -9 -11 -20zM900 700v400h-100v100h200v-500h-100zM1000 0v100h-200v400h300v-500h-100zM901 200h100v200h-100v-200z" />
<glyph unicode="&#xe154;" d="M335 14q-14 -15 -35 -15t-35 15l-230 250q-11 11 -11 20q0 16 26 16h150v900h200v-900h150q26 0 26 -16q0 -9 -11 -20zM1000 700v100h-200v400h300v-500h-100zM901 900h100v200h-100v-200zM900 0v400h-100v100h200v-500h-100z" />
<glyph unicode="&#xe155;" d="M335 14q-14 -15 -35 -15t-35 15l-230 250q-11 11 -11 20q0 16 26 16h150v900h200v-900h150q26 0 26 -16q0 -9 -11 -20zM700 1000v200h200v-200h-200zM700 700v200h300v-200h-300zM700 400v200h400v-200h-400zM700 100v200h500v-200h-500z" />
<glyph unicode="&#xe156;" d="M335 14q-14 -15 -35 -15t-35 15l-230 250q-11 11 -11 20q0 16 26 16h150v900h200v-900h150q26 0 26 -16q0 -9 -11 -20zM700 1000v200h500v-200h-500zM700 700v200h400v-200h-400zM700 400v200h300v-200h-300zM700 100v200h200v-200h-200z" />
<glyph unicode="&#xe157;" d="M350 0q-165 0 -257.5 92.5t-92.5 257.5v400q0 165 92.5 257.5t257.5 92.5h400q162 0 256 -93.5t94 -256.5v-400q0 -165 -93.5 -257.5t-256.5 -92.5h-400zM300 200h500q41 0 70.5 29.5t29.5 70.5v500q0 41 -29.5 70.5t-70.5 29.5h-500q-41 0 -70.5 -29.5t-29.5 -70.5v-500 q0 -41 29.5 -70.5t70.5 -29.5z" />
<glyph unicode="&#xe158;" d="M350 0q-163 0 -256.5 92.5t-93.5 257.5v400q0 163 94 256.5t256 93.5h400q165 0 257.5 -92.5t92.5 -257.5v-400q0 -165 -92.5 -257.5t-257.5 -92.5h-400zM300 200h500q41 0 70.5 29.5t29.5 70.5v500q0 41 -29.5 70.5t-70.5 29.5h-500q-41 0 -70.5 -29.5t-29.5 -70.5v-500 q0 -41 29.5 -70.5t70.5 -29.5zM440 330q-9 -8 -20 -8q-20 0 -20 28v400q0 28 20 28q11 0 20 -8l253 -190q17 -12 17 -30t-17 -30z" />
<glyph unicode="&#xe159;" d="M350 0q-165 0 -257.5 92.5t-92.5 257.5v400q0 163 92.5 256.5t257.5 93.5h400q163 0 256.5 -94t93.5 -256v-400q0 -165 -92.5 -257.5t-257.5 -92.5h-400zM300 200h500q41 0 70.5 29.5t29.5 70.5v500q0 41 -29.5 70.5t-70.5 29.5h-500q-41 0 -70.5 -29.5t-29.5 -70.5v-500 q0 -41 29.5 -70.5t70.5 -29.5zM520 407l-190 253q-8 9 -8 20q0 20 28 20h400q28 0 28 -20q0 -11 -8 -20l-190 -253q-12 -17 -30 -17t-30 17z" />
<glyph unicode="&#xe160;" d="M350 0q-163 0 -256.5 94t-93.5 256v400q0 165 92.5 257.5t257.5 92.5h400q165 0 257.5 -92.5t92.5 -257.5v-400q0 -163 -92.5 -256.5t-257.5 -93.5h-400zM300 200h500q41 0 70.5 29.5t29.5 70.5v500q0 41 -29.5 70.5t-70.5 29.5h-500q-41 0 -70.5 -29.5t-29.5 -70.5v-500 q0 -41 29.5 -70.5t70.5 -29.5zM350 400q-28 0 -28 20q0 11 8 20l190 253q12 17 30 17t30 -17l190 -253q8 -9 8 -20q0 -20 -28 -20h-400z" />
<glyph unicode="&#xe161;" d="M550 0q-21 0 -35.5 14.5t-14.5 35.5v100q0 21 14.5 35.5t35.5 14.5h450q41 0 70.5 29.5t29.5 70.5v500q0 41 -29.5 70.5t-70.5 29.5h-450q-21 0 -35.5 14.5t-14.5 35.5v100q0 21 14.5 35.5t35.5 14.5h400q165 0 257.5 -92.5t92.5 -257.5v-400q0 -165 -92.5 -257.5 t-257.5 -92.5h-400zM338 233q-11 -10 -21 -10q-17 0 -17 27v150h-250q-21 0 -35.5 14.5t-14.5 35.5v200q0 21 14.5 35.5t35.5 14.5h250v150q0 27 17 27q10 0 21 -10l324 -284q16 -13 16 -33t-16 -33z" />
<glyph unicode="&#xe162;" d="M403 2l-9 8q-5 7 -5 18q0 10 1 14q2 9 42 123.5t79 224.5l39 110h-302q-23 0 -31 19q-4 7 -4 15q0 13 10 26q75 86 209.5 237.5t228 257t98.5 111.5q9 16 25 16h9l9 -9q6 -7 6 -19q0 -1 -0.5 -4t-0.5 -4q-3 -11 -79 -225.5t-78 -221.5l300 1q24 0 32 -17q3 -6 3 -13 q0 -12 -8 -23q-1 0 -133.5 -155t-267 -312.5t-138.5 -162.5q-12 -15 -26 -15h-9z" />
<glyph unicode="&#xe163;" d="M350 0q-165 0 -257.5 92.5t-92.5 257.5v400q0 165 92.5 257.5t257.5 92.5h400q21 0 35.5 -14.5t14.5 -35.5v-100q0 -21 -14.5 -35.5t-35.5 -14.5h-450q-41 0 -70.5 -29.5t-29.5 -70.5v-500q0 -41 29.5 -70.5t70.5 -29.5h450q21 0 35.5 -14.5t14.5 -35.5v-100 q0 -21 -14.5 -35.5t-35.5 -14.5h-400zM938 233q-11 -10 -21 -10q-17 0 -17 27v150h-250q-21 0 -35.5 14.5t-14.5 35.5v200q0 21 14.5 35.5t35.5 14.5h250v150q0 27 17 27q10 0 21 -10l324 -284q16 -13 16 -33t-16 -33z" />
<glyph unicode="&#xe164;" d="M673 532l-141 141q-15 15 -15 36q0 20 15 35l312 312l-109 109q-11 11 -11 20q0 15 26 15h400q21 0 35.5 -14.5t14.5 -35.5v-400q0 -26 -15 -26q-9 0 -20 11l-109 109l-312 -312q-15 -15 -35 -15q-21 0 -36 15zM350 0q-165 0 -257.5 92.5t-92.5 257.5v400 q0 165 92.5 257.5t257.5 92.5h300l-194 -200h-156q-41 0 -70.5 -29.5t-29.5 -70.5v-500q0 -41 29.5 -70.5t70.5 -29.5h500q41 0 70.5 29.5t29.5 70.5v148l200 200v-298q0 -165 -93.5 -257.5t-256.5 -92.5h-400z" />
<glyph unicode="&#xe165;" d="M600 14q-119 0 -227.5 46.5t-187 125t-125 187t-46.5 227.5t46.5 227.5t125 187t187 125t227.5 46.5t227.5 -46.5t187 -125t125 -187t46.5 -227.5t-46.5 -227.5t-125 -187t-187 -125t-227.5 -46.5zM600 178q115 0 212 56.5t153.5 153.5t56.5 212t-56.5 212t-153.5 153.5 t-212 56.5q-86 0 -164 -33t-134.5 -90t-90 -135t-33.5 -164q0 -115 56.5 -212t153.5 -153.5t212 -56.5zM600 406q-80 0 -137 57t-57 137t57 137t137 57t137 -57t57 -137t-57 -137t-137 -57z" />
<glyph unicode="&#xe166;" d="M578 337q-14 -15 -33 -15t-33 15l-379 426q-10 10 -10 20q0 17 27 17h250v350q0 21 14.5 35.5t35.5 14.5h200q21 0 35.5 -14.5t14.5 -35.5v-350h245q26 0 26 -17q0 -10 -10 -20zM0 0v250q0 21 14.5 35.5t35.5 14.5h1000q21 0 35.5 -14.5t14.5 -35.5v-250h-1100zM900 150 h100v50h-100v-50z" />
<glyph unicode="&#xe167;" d="M444 400q-20 0 -32 14.5t-12 35.5v250h-250q-12 0 -19.5 7t-7.5 17q0 13 10 24l383 431q15 17 36 17q17 0 31 -14l378 -435q10 -12 10 -24q0 -10 -7 -16.5t-20 -6.5h-244v-250q0 -20 -17 -35t-39 -15h-200zM0 0v250q0 21 14.5 35.5t35.5 14.5h1000q21 0 35.5 -14.5 t14.5 -35.5v-250h-1100zM900 150h100v50h-100v-50z" />
<glyph unicode="&#xe168;" d="M379 392l-292 291q-7 7 -7 18t7 18l139 139q7 7 18 7t18 -7l134 -135l369 369q7 7 17 7q11 0 18 -7l139 -139q7 -7 7 -18t-7 -18l-525 -525q-8 -8 -18 -8t-17 8zM0 0v250q0 21 14.5 35.5t35.5 14.5h1000q21 0 35.5 -14.5t14.5 -35.5v-250h-1100zM900 150h100v50h-100v-50 z" />
<glyph unicode="&#xe169;" d="M212 876l-77 76q-14 15 -14 36q0 20 14 35l142 142q15 14 35 14q21 0 35 -14l77 -77zM250 400q-26 0 -26 15q0 9 11 20l208 208l-154 155l212 212l154 -155l210 210q11 11 20 11q15 0 15 -26l-2 -599q-1 -20 -15.5 -35t-35.5 -15zM0 0v250q0 21 14.5 35.5t35.5 14.5h1000 q21 0 35.5 -14.5t14.5 -35.5v-250h-1100zM900 150h100v50h-100v-50z" />
<glyph unicode="&#xe170;" d="M965 535l-208 208l-155 -154l-212 212l155 154l-210 210q-11 11 -11 20q0 15 26 15l599 -2q20 -1 35 -15.5t15 -35.5l1 -597q0 -26 -15 -26q-9 0 -20 11zM448 435q-15 -14 -36 -14q-19 0 -35 14l-142 142q-14 15 -14 35q0 21 15 35l76 77l212 -212zM0 0v250 q0 21 14.5 35.5t35.5 14.5h1000q21 0 35.5 -14.5t14.5 -35.5v-250h-1100zM900 150h100v50h-100v-50z" />
<glyph unicode="&#xe171;" d="M403 -20v423h-399l1196 796v-1096l-483 276zM483 194l683 953l-683 -723v-230z" />
<glyph unicode="&#xe172;" d="M50 100q-21 0 -35.5 14.5t-14.5 35.5v1000q0 20 14.5 35t35.5 15h250v-300h500v300h100l200 -200v-850q0 -21 -14.5 -35.5t-35.5 -14.5h-150v400h-700v-400h-150zM600 1000v200h100v-200h-100z" />
<glyph unicode="&#xe173;" d="M50 100q-21 0 -35.5 14.5t-14.5 35.5v1000q0 20 14.5 35t35.5 15h250v-300h500v300h100l200 -200l-2 -149l-299 -299l-95 95q-9 9 -22 9q-12 0 -21 -9l-149 -147h-312v-400h-150zM600 1000v200h100v-200h-100zM782 76l-202 203q-8 8 -8 17q0 10 8 18l106 106q7 8 17 8 t18 -8l79 -79l297 297q6 7 17 7t18 -7l106 -106q7 -7 7 -18t-7 -17l-420 -421q-7 -7 -18 -7t-18 7z" />
<glyph unicode="&#xe174;" d="M50 100q-21 0 -35.5 14.5t-14.5 35.5v1000q0 20 14.5 35t35.5 15h250v-300h500v300h100l200 -200v-269l-103 -103l-134 134q-17 17 -37 17q-18 0 -31 -13l-266 -266h-329v-400h-150zM600 1000v200h100v-200h-100zM798 28l-70 70q-15 15 -15 36q0 20 15 35l131 131 l-131 131q-15 15 -15 35q0 21 15 36l70 70q15 15 36 15q20 0 35 -15l131 -131l131 131q15 15 35 15q21 0 36 -15l71 -70q14 -15 14 -36q0 -20 -14 -35l-132 -131l132 -131q14 -15 14 -35q0 -21 -14 -36l-71 -70q-15 -15 -36 -15q-20 0 -35 15l-131 131l-131 -131 q-15 -15 -35 -15q-21 0 -36 15z" />
<glyph unicode="&#xe175;" d="M50 100q-21 0 -35.5 14.5t-14.5 35.5v1000q0 20 14.5 35t35.5 15h250v-300h500v300h100l200 -200v-300h-350q-21 0 -35.5 -14.5t-14.5 -35.5v-150h-500v-400h-150zM600 1000v200h100v-200h-100zM865 35l-230 230q-11 11 -11 20q0 15 26 15h150v250q0 21 14.5 35.5 t35.5 14.5h100q21 0 35.5 -14.5t14.5 -35.5v-250h150q26 0 26 -15q0 -9 -11 -20l-230 -230q-14 -14 -35 -14t-35 14z" />
<glyph unicode="&#xe176;" d="M50 100q-21 0 -35.5 14.5t-14.5 35.5v1000q0 20 14.5 35t35.5 15h250v-300h500v300h100l200 -200v-400l-165 165q-14 15 -35 15t-35 -15l-263 -265h-402v-400h-150zM600 1000v200h100v-200h-100zM850 0q-14 0 -25.5 7t-18 18.5t-6.5 24.5v250h-150q-26 0 -26 15 q0 9 11 21l230 229q14 15 35 15t35 -15l230 -229q11 -12 11 -21q0 -15 -26 -15h-150v-250q0 -20 -14.5 -35t-35.5 -15h-100z" />
<glyph unicode="&#xe177;" d="M0 900v150q0 21 14.5 35.5t35.5 14.5h1100q21 0 35.5 -14.5t14.5 -35.5v-150h-1200zM50 200q-21 0 -35.5 14.5t-14.5 35.5v550h1200v-550q0 -21 -14.5 -35.5t-35.5 -14.5h-1100zM100 300h400v200h-400v-200z" />
<glyph unicode="&#xe178;" d="M935 635q-11 -11 -20 -11q-15 0 -15 26v150h-400v200h400v150q0 26 15 26q9 0 20 -11l248 -230q14 -13 14 -35t-14 -35zM150 800q-14 0 -25.5 6.5t-18 18t-6.5 25.5v100q0 21 14.5 35.5t35.5 14.5h50v-200h-50zM300 800v200h100v-200h-100zM265 135l-247 230 q-15 14 -15 35t15 35l247 230q11 11 20 11q15 0 15 -26v-150h400v-200h-400v-150q0 -26 -15 -26q-9 0 -20 11zM800 300v200h100v-200h-100zM1000 300v200h51q20 0 34.5 -14.5t14.5 -35.5v-100q0 -21 -14.5 -35.5t-34.5 -14.5h-51z" />
<glyph unicode="&#xe179;" d="M250 0q-21 0 -35.5 14.5t-14.5 35.5v447l-3.5 3.5t-9 10.5t-13.5 16.5t-16 21t-16.5 25.5t-15.5 29t-13.5 31t-9 32.5t-3.5 33.5v450q1 6 3 14t14.5 22t32.5 14t32.5 -12.5t15.5 -25.5l2 -12v-350h100v350v5.5t2.5 12t7 15t15 12t25.5 5.5q23 0 35.5 -12.5t13.5 -25.5 l1 -12v-350h100v350q0 2 0.5 5.5t3 12t7 15t15 12t24.5 5.5q22 0 34.5 -12.5t13.5 -25.5l2 -12v-450q0 -20 -5.5 -42.5t-14.5 -41.5t-19.5 -37.5t-21 -33t-19.5 -26t-14 -16.5l-6 -6v-447q0 -21 -14.5 -35.5t-35.5 -14.5h-200zM950 0q-21 0 -35.5 14.5t-14.5 35.5v397 q-2 1 -5.5 2.5t-14 8.5t-20 15t-21 21t-20 27t-14 34t-5.5 42v359q0 15 5 32.5t13.5 33t20 29t23.5 22.5l276 116q14 11 30 11q15 0 23.5 -11.5t8.5 -32.5v-1106q0 -21 -14.5 -35.5t-35.5 -14.5h-200z" />
<glyph unicode="&#xe180;" d="M100 0v56q4 0 11 0.5t24 3t30 7.5t24 15t11 24v888q0 22 -25 34.5t-50 13.5l-25 2v56h400v-56q-75 0 -87.5 -6.5t-12.5 -43.5v-394h500v394q0 37 -12.5 43.5t-87.5 6.5v56h400v-56q-4 0 -11 -0.5t-24 -3t-30 -7.5t-24 -15t-11 -24v-888q0 -14 10.5 -24t25 -15t29 -7.5 t25.5 -2.5l10 -1v-56h-400v56q75 0 87.5 6.5t12.5 43.5v394h-500v-394q0 -37 12.5 -43.5t87.5 -6.5v-56h-400z" />
<glyph unicode="&#xe181;" d="M700 702v98l-200 200h-400l100 100h375l100 -100h375q21 0 35.5 -14.5t14.5 -35.5v-150h-105zM100 200q-41 0 -70.5 29.5t-29.5 70.5v500q0 41 29.5 70.5t70.5 29.5h300q41 0 70.5 -29.5t29.5 -70.5v-500q0 -41 -29.5 -70.5t-70.5 -29.5h-300zM100 600h300v200h-300v-200 zM700 402v163l400 133v-163zM100 300h300v200h-300v-200zM200 0l-100 100h400l200 200h105l295 98v-248q0 -21 -14.5 -35.5t-35.5 -14.5h-375l-100 -100h-375z" />
<glyph unicode="&#xe182;" d="M1006 17q-3 -1 -9.5 -1t-29.5 2t-47.5 6t-62.5 14.5t-77.5 26.5t-90 42.5t-101.5 60t-111 83t-119 108.5q-74 74 -133.5 150.5t-94.5 138.5t-60 119.5t-34.5 100t-15 74.5t-4.5 48l1 17l162 162q14 14 34 14q26 0 43 -22l139 -194q11 -15 11 -36q0 -30 -20 -50l-119 -118 q102 -142 228 -268t268 -227l118 118q19 19 49 19q21 0 38 -12l192 -136q23 -18 23 -44q0 -19 -14 -34z" />
<glyph unicode="&#xe183;" d="M49 670q-20 -3 -34.5 9t-14.5 33v200q3 4 9.5 10.5t31 26t54 37.5t80.5 39.5t109 37.5t141 26.5t175 10.5t175 -10.5t141.5 -27t108.5 -36.5t81.5 -40t53.5 -37t31 -27l9 -10v-200q0 -14 -6.5 -24.5t-18 -15t-24.5 -2.5l-202 34q-20 3 -34.5 20t-14.5 38v146 q-141 24 -300 24t-300 -24v-146q0 -21 -14.5 -38t-34.5 -20zM50 0q-21 0 -35.5 14.5t-14.5 35.5v212q0 13 5 29.5t13 31.5t17 24l365 303v50q0 4 1 10.5t12 23t30 29t60 22.5t97 10t97 -9.5t60 -23.5t30 -28t12 -24l1 -10v-50l365 -303q14 -15 24.5 -40t10.5 -45v-212 q0 -21 -14.5 -35.5t-35.5 -14.5h-1100z" />
<glyph unicode="&#xe184;" d="M300 500l-200 200v500h200v-200h200v200h200v-200h200v200h200v-500l-200 -200h-600zM125 200l137 100h-12q-21 0 -35.5 14.5t-14.5 35.5t14.5 35.5t35.5 14.5h700q21 0 35.5 -14.5t14.5 -35.5t-14.5 -35.5t-35.5 -14.5h-12l137 -100h-950zM0 0v50q0 21 14.5 35.5 t35.5 14.5h1100q21 0 35.5 -14.5t14.5 -35.5v-50h-1200z" />
<glyph unicode="&#xe185;" d="M500 0v1000q0 41 29.5 70.5t70.5 29.5h100q41 0 70.5 -29.5t29.5 -70.5v-1000h-300zM900 0v700q0 41 29.5 70.5t70.5 29.5h100q41 0 70.5 -29.5t29.5 -70.5v-700h-300zM100 0v400q0 41 29.5 70.5t70.5 29.5h100q41 0 70.5 -29.5t29.5 -70.5v-400h-300z" />
<glyph unicode="&#xe186;" d="M200 0q-124 0 -212 88t-88 212v500q0 124 88 212t212 88h700q124 0 212 -88t88 -212v-500q0 -124 -88 -212t-212 -88h-700zM100 200h900v700h-900v-700zM200 300v100h200v100h-200v300h300v-100h-200v-100h200v-300h-300zM600 300v500h200l100 -100v-300l-100 -100h-200z M700 400h100v300h-100v-300z" />
<glyph unicode="&#xe187;" d="M200 0q-124 0 -212 88t-88 212v500q0 124 88 212t212 88h700q124 0 212 -88t88 -212v-500q0 -124 -88 -212t-212 -88h-700zM100 200h900v700h-900v-700zM200 300v500h100v-200h100v200h100v-500h-100v200h-100v-200h-100zM600 300v500h200l100 -100v-300l-100 -100h-200z M700 400h100v300h-100v-300z" />
<glyph unicode="&#xe188;" d="M200 0q-124 0 -212 88t-88 212v500q0 124 88 212t212 88h700q124 0 212 -88t88 -212v-500q0 -124 -88 -212t-212 -88h-700zM100 200h900v700h-900v-700zM200 300v500h300v-100h-200v-300h200v-100h-300zM600 300v500h300v-100h-200v-300h200v-100h-300z" />
<glyph unicode="&#xe189;" d="M200 0q-124 0 -212 88t-88 212v500q0 124 88 212t212 88h700q124 0 212 -88t88 -212v-500q0 -124 -88 -212t-212 -88h-700zM100 200h900v700h-900v-700zM500 400l-300 150l300 150v-300zM600 400v300l300 -150z" />
<glyph unicode="&#xe190;" d="M200 0q-124 0 -212 88t-88 212v500q0 124 88 212t212 88h700q124 0 212 -88t88 -212v-500q0 -124 -88 -212t-212 -88h-700zM100 200h900v700h-900v-700zM200 300v500h700v-500h-700zM300 400h130q41 0 68 42t27 107q0 43 -13.5 78t-35 54t-46.5 19h-130v-300zM670 400 h130v300h-130q-25 0 -46.5 -19t-35 -54t-13.5 -78q0 -32 7 -60t20 -47.5t30.5 -30.5t37.5 -11z" />
<glyph unicode="&#xe191;" d="M200 0q-124 0 -212 88t-88 212v500q0 124 88 212t212 88h700q124 0 212 -88t88 -212v-500q0 -124 -88 -212t-212 -88h-700zM100 200h900v700h-900v-700zM200 300v100h200v100h-200v300h300v-100h-200v-100h200v-300h-300zM800 300v400h-100v100h200v-500h-100zM600 300 v100h100v-100h-100z" />
<glyph unicode="&#xe192;" d="M200 0q-124 0 -212 88t-88 212v500q0 124 88 212t212 88h700q124 0 212 -88t88 -212v-500q0 -124 -88 -212t-212 -88h-700zM100 200h900v700h-900v-700zM200 300v500h100v-100h200v-400h-300zM800 300v400h-100v100h200v-500h-100zM300 400h100v200h-100v-200zM600 300 v100h100v-100h-100z" />
<glyph unicode="&#xe193;" d="M200 0q-124 0 -212 88t-88 212v500q0 124 88 212t212 88h700q124 0 212 -88t88 -212v-500q0 -124 -88 -212t-212 -88h-700zM100 200h900v700h-900v-700zM201 300v50l199 200v150h-200v100h300v-300l-199 -200h-100zM800 300v400h-100v100h200v-500h-100zM601 300v100h100 v-100h-100z" />
<glyph unicode="&#xe194;" d="M600 9q-120 0 -229.5 47t-188.5 126t-126 188.5t-47 229.5t47 229.5t126 188.5t188.5 126t229.5 47t229.5 -47t188.5 -126t126 -188.5t47 -229.5t-47 -229.5t-126 -188.5t-188.5 -126t-229.5 -47zM600 179q114 0 211 56.5t153.5 153.5t56.5 211t-56.5 211t-153.5 153.5 t-211 56.5t-211 -56.5t-153.5 -153.5t-56.5 -211t56.5 -211t153.5 -153.5t211 -56.5zM500 400l-100 100v200l100 100h300v-100h-300v-200h300v-100h-300z" />
<glyph unicode="&#xe195;" d="M600 9q-120 0 -229.5 47t-188.5 126t-126 188.5t-47 229.5t47 229.5t126 188.5t188.5 126t229.5 47t229.5 -47t188.5 -126t126 -188.5t47 -229.5t-47 -229.5t-126 -188.5t-188.5 -126t-229.5 -47zM600 179q114 0 211 56.5t153.5 153.5t56.5 211t-56.5 211t-153.5 153.5 t-211 56.5t-211 -56.5t-153.5 -153.5t-56.5 -211q0 -85 33.5 -163t90 -134.5t134.5 -90t163 -33.5zM400 400v400h300l100 -100v-100l-50 -50l100 -100v-50h-100l-100 100h-150v-100h-100zM500 600h200v100h-200v-100z" />
<glyph unicode="&#xe196;" d="M178 300q-79 0 -135.5 57t-56.5 137q0 69 42.5 122.5t108.5 67.5q-2 12 -2 37q0 153 108 260.5t260 107.5q110 0 200.5 -59.5t134.5 -156.5q44 14 90 14q120 0 205 -86.5t85 -206.5q0 -121 -85 -207.5t-205 -86.5h-750z" />
<glyph unicode="&#xe197;" d="M178 300q-80 0 -136 57.5t-56 136.5q0 69 43 122.5t108 67.5q-2 19 -2 37q0 100 49 185t134 134t185 49q110 0 200.5 -59.5t134.5 -156.5q44 14 90 14q120 0 205 -86.5t85 -207t-85 -207t-205 -86.5h-128v250q0 21 -14.5 35.5t-35.5 14.5h-300q-21 0 -35.5 -14.5 t-14.5 -35.5v-250h-222zM568 -83l-223 244q-9 10 -9 21q0 18 27 18h137v275q0 10 7.5 17.5t17.5 7.5h150q10 0 17.5 -7.5t7.5 -17.5v-275h137q27 0 27 -18q0 -11 -9 -21l-223 -244q-14 -16 -32 -16t-32 16z" />
<glyph unicode="&#xe198;" d="M178 299q-79 0 -135.5 57.5t-56.5 136.5q0 69 43 122.5t108 67.5q-2 19 -2 38q0 100 49 184.5t133.5 134t184.5 49.5q110 0 201 -59.5t135 -156.5q43 15 89 15q121 0 206 -86.5t86 -206.5q0 -99 -60 -181t-150 -110l-378 360q-12 16 -31 16t-32 -16l-381 -365h-9z M525 -100q-10 0 -17.5 7.5t-7.5 17.5v275h-137q-27 0 -27 18q0 11 9 21q199 204 224 228q19 19 31 19q13 0 32 -19l223 -228q9 -10 9 -21q0 -18 -27 -18h-137v-275q0 -7 -3.5 -12.5t-9 -9t-12.5 -3.5h-150z" />
<glyph unicode="&#xe199;" d="M400 0v50q0 21 14.5 35.5t35.5 14.5h50v100h-400l270 300h-170l270 300h-170l300 333l300 -333h-170l270 -300h-170l270 -300h-400v-100h50q21 0 35.5 -14.5t14.5 -35.5v-50h-400z" />
<glyph unicode="&#xe200;" d="M450 0v50q0 21 14.5 35.5t35.5 14.5v251q-45 -30 -100 -30q-74 0 -126.5 52.5t-52.5 126.5q0 18 4 38q-47 22 -75.5 65.5t-28.5 96.5q0 74 52.5 126.5t126.5 52.5q5 0 23 -2q0 2 -1 10t-1 13q0 116 81.5 197.5t197.5 81.5q94 0 167.5 -56.5t99.5 -145.5 q89 -6 150.5 -71.5t61.5 -155.5q0 -61 -29.5 -112.5t-79.5 -82.5q9 -29 9 -55q0 -74 -52.5 -126.5t-126.5 -52.5q-55 0 -100 30v-251q21 0 35.5 -14.5t14.5 -35.5v-50h-300z" />
<glyph unicode="&#xe201;" d="M190 190q-83 83 -126.5 190t-43.5 220q0 75 18.5 147t57 139.5t94.5 123.5q83 83 190 126.5t220 43.5t220 -43.5t190 -126.5t126.5 -190t43.5 -220t-43.5 -220t-126.5 -190t-190 -126.5t-220 -43.5t-220 43.5t-190 126.5zM200 685q23 0 29 22q27 96 98 166q70 71 166 98 q7 2 12.5 7.5t8 13t0.5 15.5l-9 35q-3 13 -14 19q-7 4 -15 4q-4 0 -8 -1q-121 -34 -209.5 -122.5t-122.5 -209.5q-1 -2 -1 -8q0 -8 4 -15q6 -11 18 -14l36 -9q3 -1 7 -1zM345 649q22 0 28 21q18 58 58.5 98.5t97.5 57.5q12 4 18 14.5t3 21.5l-9 35q-3 12 -14 19q-7 4 -15 4 q-4 0 -9 -2q-80 -24 -138.5 -82.5t-82.5 -138.5q-2 -8 -2 -9q0 -5 4 -15q6 -11 19 -14l34 -9q4 -1 8 -1zM480 480q49 -49 120 -49t120 49t49 120t-49 120t-120 49t-120 -49t-49 -120t49 -120zM688 280q4 0 9 2q80 24 138.5 82.5t82.5 138.5q2 8 2 9q0 5 -4 15q-6 11 -19 14 l-34 9q-4 1 -8 1q-22 0 -28 -21q-18 -58 -58.5 -98.5t-98.5 -57.5q-11 -4 -17 -14.5t-3 -21.5l9 -35q3 -12 14 -19q7 -4 15 -4zM724 135q5 0 8 1q121 34 209.5 122.5t122.5 209.5q1 2 1 8q0 8 -4 15q-6 11 -18 14l-36 9q-3 1 -7 1q-23 0 -29 -22q-27 -96 -98 -166 q-70 -71 -166 -98q-11 -3 -17.5 -13.5t-3.5 -22.5l9 -35q3 -13 14 -19q7 -4 15 -4z" />
<glyph unicode="&#xe202;" d="M100 420v755q0 10 7.5 17.5t17.5 7.5h575v-400h300v-380h-180v200h-340v-200h-380zM800 900v200l200 -200h-200zM650 88l-212 212h162v200h100v-200h162zM125 0q-10 0 -17.5 7.5t-7.5 17.5v395l420 -420h-395zM780 0l220 220v-195q0 -10 -7.5 -17.5t-17.5 -7.5h-195z" />
<glyph unicode="&#xe203;" d="M100 80v1095q0 10 7.5 17.5t17.5 7.5h575v-400h300v-520l-350 350zM800 900v200l200 -200h-200zM600 0v200h-162l212 212l212 -212h-162v-200h-100zM125 0q-10 0 -17.5 7.5t-7.5 17.5v55h380v-80h-355zM820 0v80h180v-55q0 -10 -7.5 -17.5t-17.5 -7.5h-155z" />
<glyph unicode="&#xe204;" d="M900 500v300h-162l212 212l212 -212h-162v-200h100l100 -100h-300zM0 250v450h100q0 36 7 57.5t23.5 30t29.5 10.5t40 2h200q27 0 40 -2t29.5 -10.5t23.5 -30t7 -57.5h300v-100h-600zM0 0l300 500h500v-100h240l-240 -400h-800z" />
<glyph unicode="&#xe205;" d="M550 800q-21 0 -35.5 14.5t-14.5 35.5v100q0 21 14.5 35.5t35.5 14.5h50v50q0 21 14.5 35.5t35.5 14.5h100q21 0 35.5 -14.5t14.5 -35.5v-50h50q21 0 35.5 -14.5t14.5 -35.5v-100q0 -21 -14.5 -35.5t-35.5 -14.5h-300zM400 0l-20 4l246 246l-326 326v324q0 41 29.5 70.5 t70.5 29.5v-150q0 -62 44 -106t106 -44h300q62 0 106 44t44 106v150q41 0 70.5 -29.5t29.5 -70.5v-800q0 -41 -29.5 -70.5t-70.5 -29.5h-600zM200 38v162h-200v100h200v162l212 -212z" />
<glyph unicode="&#xe206;" d="M350 800q-21 0 -35.5 14.5t-14.5 35.5v100q0 21 14.5 35.5t35.5 14.5h50v50q0 21 14.5 35.5t35.5 14.5h100q21 0 35.5 -14.5t14.5 -35.5v-50h50q21 0 35.5 -14.5t14.5 -35.5v-100q0 -21 -14.5 -35.5t-35.5 -14.5h-300zM200 0q-41 0 -70.5 29.5t-29.5 70.5v800 q0 41 29.5 70.5t70.5 29.5v-150q0 -62 44 -106t106 -44h300q62 0 106 44t44 106v150q41 0 70.5 -29.5t29.5 -70.5v-500h-200v-300h200q0 -36 -7 -57.5t-23.5 -30t-29.5 -10.5t-40 -2h-600zM1000 38v162h-200v100h200v162l212 -212z" />
<glyph unicode="&#xe207;" d="M400 25v950l600 125h-700v-1000h-100v1025q0 23 15.5 49t34.5 26h750q40 0 70 -40.5t30 -84.5v-933zM500 425l100 20v100l-100 -20v-100z" />
<glyph unicode="&#xe208;" d="M445 22q-9 -4 -18 -4q-27 0 -27 32v650h-150q-21 0 -35.5 14.5t-14.5 35.5v400q0 21 14.5 35.5t35.5 14.5h600q21 0 35.5 -14.5t14.5 -35.5v-400q0 -21 -14.5 -35.5t-35.5 -14.5h-150v-500zM400 1000h300v100h-300v-100z" />
<glyph unicode="&#xe209;" d="M-34 2q-31 0 -48.5 14t-17.5 38q0 19 13 41l637 1104q23 39 54 39t54 -39l637 -1104q13 -22 13 -41q0 -24 -17.5 -38t-48.5 -14h-1276zM573 402h54q20 0 37.5 14.5t21.5 34.5l58 302q1 3 1 9q0 11 -5 20.5t-14.5 14.5t-21.5 5h-208q-18 0 -29.5 -11.5t-11.5 -28.5 q0 -6 1 -9l58 -302q4 -20 21.5 -34.5t37.5 -14.5zM525 202h150q10 0 17.5 7.5t7.5 17.5v50q0 10 -7.5 17.5t-17.5 7.5h-150q-10 0 -17.5 -7.5t-7.5 -17.5v-50q0 -10 7.5 -17.5t17.5 -7.5z" />
<glyph unicode="&#xe210;" d="M425 900q-10 0 -17.5 7.5t-7.5 17.5v150q0 10 7.5 17.5t17.5 7.5h250q10 0 17.5 -7.5t7.5 -17.5v-150q0 -10 -7.5 -17.5t-17.5 -7.5h-250zM425 600q-10 0 -17.5 7.5t-7.5 17.5v150q0 10 7.5 17.5t17.5 7.5h250q10 0 17.5 -7.5t7.5 -17.5v-150q0 -10 -7.5 -17.5 t-17.5 -7.5h-250zM825 600q-10 0 -17.5 7.5t-7.5 17.5v150q0 10 7.5 17.5t17.5 7.5h250q10 0 17.5 -7.5t7.5 -17.5v-150q0 -10 -7.5 -17.5t-17.5 -7.5h-250zM25 300q-10 0 -17.5 7.5t-7.5 17.5v150q0 10 7.5 17.5t17.5 7.5h250q10 0 17.5 -7.5t7.5 -17.5v-150 q0 -10 -7.5 -17.5t-17.5 -7.5h-250zM425 300q-10 0 -17.5 7.5t-7.5 17.5v150q0 10 7.5 17.5t17.5 7.5h250q10 0 17.5 -7.5t7.5 -17.5v-150q0 -10 -7.5 -17.5t-17.5 -7.5h-250zM825 300q-10 0 -17.5 7.5t-7.5 17.5v150q0 10 7.5 17.5t17.5 7.5h250q10 0 17.5 -7.5t7.5 -17.5 v-150q0 -10 -7.5 -17.5t-17.5 -7.5h-250zM25 0q-10 0 -17.5 7.5t-7.5 17.5v150q0 10 7.5 17.5t17.5 7.5h250q10 0 17.5 -7.5t7.5 -17.5v-150q0 -10 -7.5 -17.5t-17.5 -7.5h-250zM425 0q-10 0 -17.5 7.5t-7.5 17.5v150q0 10 7.5 17.5t17.5 7.5h250q10 0 17.5 -7.5t7.5 -17.5 v-150q0 -10 -7.5 -17.5t-17.5 -7.5h-250zM825 0q-10 0 -17.5 7.5t-7.5 17.5v150q0 10 7.5 17.5t17.5 7.5h250q10 0 17.5 -7.5t7.5 -17.5v-150q0 -10 -7.5 -17.5t-17.5 -7.5h-250z" />
<glyph unicode="&#xe211;" d="M214 500q-40 51 -81 134l-66 132q-14 27 -14 54q0 36 26 58t71 22h350v100h-100v200h100v100h200v-100h100v-200h-100v-100h350q45 0 71 -22t26 -58q0 -27 -14 -54l-66 -132q-41 -83 -81 -134h-772zM125 200l138 100h-13q-21 0 -35.5 14.5t-14.5 35.5t14.5 35.5 t35.5 14.5h700q21 0 35.5 -14.5t14.5 -35.5t-14.5 -35.5t-35.5 -14.5h-12l137 -100h-950zM0 0v50q0 21 14.5 35.5t35.5 14.5h1100q21 0 35.5 -14.5t14.5 -35.5v-50h-1200z" />
<glyph unicode="&#xe212;" d="M503 1200q0 41 28.5 70.5t68.5 29.5q26 0 48.5 -13.5t35.5 -36.5t13 -50h-194zM261 800l-178 145q-30 20 -30 35q0 20 47 20h328q-3 17 -3 25q0 38 18 75h314q18 -37 18 -75q0 -8 -3 -25h328q45 0 45 -19q0 -16 -31 -36l-175 -145h-678zM125 200l275 200v200h-150 q-21 0 -35.5 14.5t-14.5 35.5t14.5 35.5t35.5 14.5h700q21 0 35.5 -14.5t14.5 -35.5t-14.5 -35.5t-35.5 -14.5h-150v-200l275 -200h-950zM0 0v50q0 21 14.5 35.5t35.5 14.5h1100q21 0 35.5 -14.5t14.5 -35.5v-50h-1200z" />
<glyph unicode="&#xe213;" d="M600 819q-75 0 -128 53t-53 128t53 128t128 53t128 -53t53 -128t-53 -128t-128 -53zM440 500q39 107 39 183q0 58 21.5 86.5t56.5 28.5h91q16 0 30 -6.5t24.5 -20t16.5 -36t6 -52.5q0 -76 39 -183h-324zM125 200l137 100h-12q-21 0 -35.5 14.5t-14.5 35.5t14.5 35.5 t35.5 14.5h700q21 0 35.5 -14.5t14.5 -35.5t-14.5 -35.5t-35.5 -14.5h-12l137 -100h-950zM0 0v50q0 21 14.5 35.5t35.5 14.5h1100q21 0 35.5 -14.5t14.5 -35.5v-50h-1200z" />
<glyph unicode="&#xe214;" d="M600 811q-78 0 -133.5 55.5t-55.5 133.5q0 62 34 143l144 -143l111 111l-163 163q34 26 63 26q47 0 92.5 -53.5t71 -123t25.5 -123.5q0 -51 -25 -95t-69 -69t-95 -25zM440 500q39 107 39 183q0 58 22 86.5t56 28.5h91q16 0 30 -6.5t24.5 -20t16.5 -36t6 -52.5 q0 -76 39 -183h-324zM125 200l138 100h-13q-21 0 -35.5 14.5t-14.5 35.5t14.5 35.5t35.5 14.5h700q21 0 35.5 -14.5t14.5 -35.5t-14.5 -35.5t-35.5 -14.5h-12l137 -100h-950zM0 0v50q0 21 14.5 35.5t35.5 14.5h1100q21 0 35.5 -14.5t14.5 -35.5v-50h-1200z" />
<glyph unicode="&#xe215;" d="M329 500q-41 56 -68.5 119.5t-40 122.5t-12.5 114q0 84 33 164.5t87.5 139.5t126 96.5t145.5 41.5v-98l300 -161v-139h-300q0 -57 18.5 -108t50 -91.5t63 -72t70 -67.5t57.5 -61h-530zM125 200l137 100h-12q-21 0 -35.5 14.5t-14.5 35.5t14.5 35.5t35.5 14.5h700 q21 0 35.5 -14.5t14.5 -35.5t-14.5 -35.5t-35.5 -14.5h-13l138 -100h-950zM0 0v50q0 21 14.5 35.5t35.5 14.5h1100q21 0 35.5 -14.5t14.5 -35.5v-50h-1200z" />
<glyph unicode="&#xe216;" d="M400 900v50q0 54 27 100t73 72v78q0 41 29.5 70.5t70.5 29.5t70.5 -29.5t29.5 -70.5v-78q46 -26 73 -72t27 -100v-50h-400zM400 0q-83 0 -141.5 58.5t-58.5 141.5v400q0 83 58.5 141.5t141.5 58.5h400q54 0 100 -27t72 -73h-172v-100h200v-100h-200v-100h200v-100h-200 v-100h200q0 -83 -58.5 -141.5t-141.5 -58.5h-400z" />
<glyph unicode="&#xe217;" d="M0 100v42q0 21 15 39.5t35 18.5h30l468 746l-135 183q-6 10 -6 24q0 26 21 38q10 7 24 7q24 0 38 -22l111 -148l111 150q14 22 39 22q13 0 23 -6q22 -14 22 -38q0 -13 -7 -23l-136 -187l467 -746h30q20 0 35 -18.5t15 -39.5v-42h-1200zM600 200h377l-182 112l-195 534 v-646z" />
<glyph unicode="&#xe218;" d="M150 500q-21 0 -35.5 14.5t-14.5 35.5v500q0 21 14.5 35.5t35.5 14.5h900q21 0 35.5 -14.5t14.5 -35.5v-500q0 -21 -14.5 -35.5t-35.5 -14.5h-900zM222 -1q-19 0 -32 13t-13 32t13 32l224 224h-289q-10 0 -17.5 7.5t-7.5 17.5v50q0 10 7.5 17.5t17.5 7.5h950 q10 0 17.5 -7.5t7.5 -17.5v-50q0 -10 -7.5 -17.5t-17.5 -7.5h-283l224 -224q13 -13 13 -32t-13 -32t-31.5 -13t-31.5 13l-88 88h-524l-87 -88q-13 -13 -32 -13zM441 200h324l-100 100h-124z" />
<glyph unicode="&#xe219;" d="M0 700v200q0 83 58.5 141.5t141.5 58.5h800q83 0 141.5 -58.5t58.5 -141.5v-200h-100q0 41 -29.5 70.5t-70.5 29.5h-250q-41 0 -70.5 -29.5t-29.5 -70.5h-100q0 41 -29.5 70.5t-70.5 29.5h-250q-41 0 -70.5 -29.5t-29.5 -70.5h-100zM0 200v300q0 41 29.5 70.5t70.5 29.5 h1000q41 0 70.5 -29.5t29.5 -70.5v-300h-1200zM150 0q-21 0 -35.5 14.5t-14.5 35.5v50h200v-50q0 -21 -14.5 -35.5t-35.5 -14.5h-100zM950 0q-21 0 -35.5 14.5t-14.5 35.5v50h200v-50q0 -21 -14.5 -35.5t-35.5 -14.5h-100z" />
<glyph unicode="&#xe220;" d="M700 900q0 124 88 212t212 88q0 -124 -88 -212t-212 -88zM494 0q-41 18 -78 51.5t-62.5 72.5t-46.5 81.5t-34 81.5t-22 70.5t-12 50.5l-4 19q-19 80 -19 140q0 211 228 211q56 0 131 -12l-147 192q-7 11 -7 20q0 22 29 22h100q21 0 40 -14t26 -33l79 -194q117 21 172 21 q219 0 219 -206q0 -61 -21 -147q-1 -7 -3 -19.5t-11 -50t-20.5 -73t-32.5 -81.5t-46.5 -83t-64 -70t-82.5 -50q-13 -5 -45 -5q-21 0 -60.5 2.5t-49.5 2.5q-13 0 -51.5 -3t-58.5 -3q-32 0 -46 6z" />
<glyph unicode="&#xe221;" d="M550 200l-517 518q-32 32 -32 76t32 75l295 296q31 31 76 31t76 -31l682 -683q31 -31 31 -76t-31 -75l-131 -131h-481zM450 452l303 304l-341 341l-304 -303zM200 0v50q0 21 14.5 35.5t35.5 14.5h800q21 0 35.5 -14.5t14.5 -35.5v-50h-900z" />
<glyph unicode="&#xe222;" d="M200 0v150q0 21 14.5 35.5t35.5 14.5h50v150q0 91 49.5 165.5t130.5 109.5q-81 35 -130.5 109.5t-49.5 165.5v100h-50q-21 0 -35.5 14.5t-14.5 35.5v150h800v-150q0 -21 -14.5 -35.5t-35.5 -14.5h-50v-100q0 -91 -49.5 -165.5t-130.5 -109.5q81 -35 130.5 -109.5 t49.5 -165.5v-150h50q21 0 35.5 -14.5t14.5 -35.5v-150h-800zM400 200h400v150q0 60 -32.5 109.5t-87.5 73.5q-28 12 -44 37t-16 55t16 55t44 37q36 15 63 43t42 64.5t15 75.5v100h-400v-100q0 -60 32.5 -109.5t87.5 -73.5q14 -6 25 -15.5t19 -21.5t12 -26t4 -29 q0 -30 -16 -55t-44 -37q-36 -15 -63 -43t-42 -64.5t-15 -75.5v-150z" />
<glyph unicode="&#xe223;" d="M850 400q-14 0 -25.5 6.5t-18 18t-6.5 25.5v150h-625q-16 0 -25.5 8.5t-9.5 22.5q0 6 3 16l189 506q8 19 27.5 33t40.5 14h400q21 0 40.5 -14t27.5 -33l189 -506q3 -10 3 -16q0 -14 -9.5 -22.5t-25.5 -8.5h-125v-150q0 -21 -14.5 -35.5t-35.5 -14.5zM302 0v50 q0 21 14.5 35.5t35.5 14.5h50v50q0 21 14.5 35.5t35.5 14.5h48v300h200v-300h47q13 0 24.5 -6.5t18.5 -18t7 -25.5v-50h50q21 0 35.5 -14.5t14.5 -35.5v-50h-595z" />
<glyph unicode="&#xe224;" d="M800 200v591l-300 300v84q0 10 7.5 17.5t17.5 7.5h375v-400h300v-575q0 -10 -7.5 -17.5t-17.5 -7.5h-375zM1000 900v200l200 -200h-200zM25 0q-10 0 -17.5 7.5t-7.5 17.5v950q0 10 7.5 17.5t17.5 7.5h375v-400h300v-575q0 -10 -7.5 -17.5t-17.5 -7.5h-650zM500 700v200 l200 -200h-200z" />
<glyph unicode="&#xe225;" d="M250 100q-19 0 -30.5 11.5t-11.5 29.5v8l26 157q-84 74 -128 175l-159 53q-19 7 -33 26t-14 40v50q0 21 14.5 35.5t35.5 14.5h124q11 86 56 166l-111 95q-13 10 -13 20q0 13 25 13h203q116 101 250 101h195q60 0 118 -21t105.5 -58t86.5 -85t64 -104.5t34 -114.5 q18 -14 35 -20q13 -4 24 -4q33 0 60 23t27 56q0 24 -18 51q-13 17 -13 30q0 8 4 13q8 12 21 12q16 0 34 -18q39 -42 39 -96q0 -65 -43 -112t-107 -47h-62q-4 -38 -21 -82.5t-35 -78t-35 -56.5l-39 -234q-2 -13 -10.5 -24.5t-21 -18t-26.5 -6.5h-100q-18 0 -30 11.5t-12 29.5 v8l12 70q-49 -14 -91 -14h-195q-24 0 -65 8l-11 -64q-2 -13 -10.5 -24.5t-21 -18t-26.5 -6.5h-100zM425 900h250q10 0 17.5 7.5t7.5 17.5v50q0 10 -7.5 17.5t-17.5 7.5h-250q-10 0 -17.5 -7.5t-7.5 -17.5v-50q0 -10 7.5 -17.5t17.5 -7.5z" />
<glyph unicode="&#xe226;" d="M641 900l423 247q12 5 24 5q34 0 55 -24l32 -38q13 -13 13 -32q0 -23 -18 -38l-139 -120h-390zM516 502q-4 -1 -11 -1q-35 0 -55 32q-42 67 -100 67h-300q-62 0 -106 44t-44 106v200q0 62 44 106t106 44h106q27 0 45.5 -2t37 -7t33 -15t28 -25.5t25.5 -38.5l102 -212h823 q21 0 35.5 -14.5t14.5 -35.5v-50q0 -21 -14 -40t-33 -26zM98 772h134q11 0 17.5 4.5t8 10.5t1.5 17t-16 45t-27 51q-18 28 -43 28h-80q-19 0 -28 -14t-9 -35v-56q0 -51 42 -51zM550 573q32 0 54.5 22.5t22.5 54.5t-22.5 54.5t-54.5 22.5t-54.5 -22.5t-22.5 -54.5t22.5 -54.5 t54.5 -22.5zM456 10q-42 -36 -98 -36q-69 0 -114 52l-130 151q-36 43 -36 98q0 68 52 114l152 130q24 25 47 25q12 0 25 -8.5t21 -17t22 -24.5q17 -21 29 -33.5t28.5 -21.5t32.5 -9h9l63 5l48 -179q6 -28 6 -47q0 -39 -18 -67t-59 -63zM376 168l61 53q15 13 15 35q0 9 -1 14 q-1 11 -6 31.5t-11.5 42t-11.5 27.5q-13 15 -24 15q-7 0 -18 -9l-102 -88q-15 -12 -15 -28q0 -17 17 -37l37 -43q18 -21 38 -21q12 0 21 8z" />
<glyph unicode="&#xe227;" d="M325 0q-10 0 -17.5 7.5t-7.5 17.5v75h-175q-10 0 -17.5 7.5t-7.5 17.5v150q0 10 7.5 17.5t17.5 7.5h75v600h-75q-7 0 -12.5 3.5t-9 9t-3.5 12.5v150q0 10 7.5 17.5t17.5 7.5h175v75q0 10 7.5 17.5t17.5 7.5h150q10 0 17.5 -7.5t7.5 -17.5v-75h100v75q0 10 7.5 17.5 t17.5 7.5h150q10 0 17.5 -7.5t7.5 -17.5v-109q80 -33 132 -88t52 -131q0 -45 -16 -83.5t-39 -60t-46 -37t-39 -21.5l-16 -6q6 0 15 -1.5t35 -9t50 -17.5t53 -30t50 -45t35.5 -64t14.5 -84q0 -59 -11.5 -105.5t-28.5 -76.5t-44 -51t-49.5 -31.5t-54.5 -16t-49.5 -6.5 t-43.5 -1v-75q0 -10 -7.5 -17.5t-17.5 -7.5h-150q-10 0 -17.5 7.5t-7.5 17.5v75h-100v-75q0 -10 -7.5 -17.5t-17.5 -7.5h-150zM400 700h263q28 0 48.5 10.5t30 25t15 29t5.5 25.5l1 10q0 4 -0.5 11t-6 24t-15 30t-30 24t-48.5 11h-263v-200zM400 300h363q28 0 48.5 10.5 t30 25t15 29t5.5 25.5l1 10q0 4 -0.5 11t-6 24t-15 30t-30 24t-48.5 11h-363v-200z" />
<glyph unicode="&#xe228;" d="M526 0q-11 0 -18.5 7.5t-7.5 18.5v174h-275q-14 0 -14 10q0 5 4 10l120 160q6 8 18 14t22 6h125v100h-275q-14 0 -14 10q0 5 4 10l120 160q6 8 18 14t22 6h118q-5 12 -11 18l-364 364q-6 6 -6 10q0 8 13 8h250q25 0 43 -18l164 -164q8 -8 18 -8t18 8l164 164q18 18 43 18 h250q13 0 13 -8q0 -4 -6 -10l-364 -364q-6 -6 -11 -18h268q14 0 14 -10q0 -5 -4 -10l-120 -160q-6 -8 -18 -14t-22 -6h-125v-100h275q14 0 14 -10q0 -5 -4 -10l-120 -160q-6 -8 -18 -14t-22 -6h-125v-174q0 -11 -7.5 -18.5t-18.5 -7.5h-148z" />
</font>
</defs>
</svg>
